Торрент файл
скачать торрент магнет ссылка Добавлен: 07 янв 2012, 19:06
Размер: 5.22 ГБ
Сидеров: 0
Личеров: 6
Автор

СообщениеДобавлено: 07 янв 2012, 19:06 

Не в сети
Супермодератор
Аватара пользователя
Дата регистрации:
11 апр 2010, 18:10
Спасибо: 5994 / 7
Сообщения: 56686
Детки в порядке / The Kids Are All Right


Перевод: Профессиональный (многоголосый, закадровый)
Субтитры: Русские
Формат: DVD9, DVD Video, MPEG2, AC3
Страна: США
Режиссер: Лиза Холоденко
Жанр: драма, комедия
Продолжительность: 01:41:59
Год выпуска: 2010

В ролях: Аннетт Бенинг, Джулианна Мур, Марк Руффало, Миа Васиковска, Джош Хатчерсон, Йайа ДаКоста, Кунал Шарма, Эдди Хэсселл, Зося Мамет, Хоакин Гарридо

Описание: Комедия о сумасшедшей калифорнийской семейке, в которой — две «мамочки» Ник и Джулс растят двух детей-подростков, появившихся на свет путем искусственного оплодотворения. Пятнадцатилетний Лейзер упрашивает старшую сестру Джони, которой только что исполнилось восемнадцать, помочь ему отыскать их биологического отца. Мальчику очень не хватает настоящего мужского общения. Джони без особого энтузиазма обещает помочь брату.

В результате неожиданно обнаружившийся папаша решает приударить за одной из «мамочек», и знакомство деток с родителями, да и знакомство самих родителей, оборачивается чередой нелепых, смешных, а иногда и грустных ситуаций.


Рейтинг на IMDB: 7.3/10
Рейтинг МРАА: R
Рейтинг КиноПоиск.RU: 6.871

Видео: 720x576 (PAL 16:9), 25,000 fps, MPEG-2 Video ~ 8000 kbps avg
Аудио #1: Русский: 48 kHz, AC3 Dolby Digital, 6 ch, 384 kbps avg [Профессиональный (многоголосый, закадровый)]
Аудио #2: Английский: 48 kHz, AC3 Dolby Digital, 6 ch, ~ 384 kbps avg [Оригинал]
Аудио #3: Русский: 48 kHz, AC3 Dolby Digital, 6 ch, ~ 192 kbps avg [Профессиональный (многоголосый, закадровый)]

Слоган: «У Ника и Жюля была прекрасная семья, пока они не встретили человека, который сделал все это возможным.»

Доп.информация: [Лицензионное издание «Кармен Видео»]
Meню озвученное, частично анимированное, на русском языке, с навигацией по эпизодам. Все кнопки функциональны.


Общее
Полное имя: D:\DVD\Детки в порядке\VIDEO_TS\VTS_01_3.VOB
Формат: MPEG-PS
Размер файла: 1024 Мбайт
Продолжительность: 22 м.
Общий поток: 6281 Кбит/сек

Видео
Идентификатор: 224 (0xE0)
Формат: MPEG Video
Версия формата: Version 2
Профиль формата: Main@Main
Параметр BVOP формата: Да
Параметр матрицы формата: По умолчанию
Параметры GOP формата: M=3, N=15
Продолжительность: 22 м.
Вид битрейта: Переменный
Битрейт: 5196 Кбит/сек
Номинальный битрейт: 8000 Кбит/сек
Ширина: 720 пикс.
Высота: 576 пикс.
Соотношение сторон: 16:9
Частота кадров: 25,000 кадр/сек
Стандарт вещания: PAL
Цветовое пространство: YUV
Подвыборка цветности: 4:2:0
Битовая глубина: 8 бит
Тип развёртки: Чересстрочная
Порядок развёртки: Верхнее поле первое
Метод сжатия: С потерями
Бит/(Пиксели*Кадры): 0.501
Размер потока: 847 Мбайт (83%)

Аудио #1
Идентификатор: 128 (0x80)
Формат: AC-3
Формат/Информация: Audio Coding 3
Расширение режима: CM (complete main)
Продолжительность: 22 м.
Вид битрейта: Постоянный
Битрейт: 384 Кбит/сек
Канал(ы): 6 канала(ов)
Расположение каналов: Front: L C R, Side: L R, LFE
Частота: 48,0 КГц
Битовая глубина: 16 бит
Метод сжатия: С потерями
Задержка видео: -520 мс.
Размер потока: 62,6 Мбайт (6%)

Аудио #2
Идентификатор: 129 (0x81)
Формат: AC-3
Формат/Информация: Audio Coding 3
Расширение режима: CM (complete main)
Продолжительность: 22 м.
Вид битрейта: Постоянный
Битрейт: 384 Кбит/сек
Канал(ы): 6 канала(ов)
Расположение каналов: Front: L C R, Side: L R, LFE
Частота: 48,0 КГц
Битовая глубина: 16 бит
Метод сжатия: С потерями
Задержка видео: -520 мс.
Размер потока: 62,6 Мбайт (6%)

Аудио #3
Идентификатор: 130 (0x82)
Формат: AC-3
Формат/Информация: Audio Coding 3
Расширение режима: CM (complete main)
Продолжительность: 22 м.
Вид битрейта: Постоянный
Битрейт: 192 Кбит/сек
Канал(ы): 2 канала(ов)
Расположение каналов: Front: L R
Частота: 48,0 КГц
Битовая глубина: 16 бит
Метод сжатия: С потерями
Задержка видео: -456 мс.
Размер потока: 31,3 Мбайт (3%)



















Поделиться:



Вернуться к началу
 Профиль Отправить личное сообщение  
 
   Похожие торренты   Автор   Торрент   Размер 
В этой теме нет новых непрочитанных сообщений. Детки / Kids [драма, 1995] BDRip 720p, Dvo

salma3

162 | 102

6.13 ГБ

В этой теме нет новых непрочитанных сообщений. Детки напрокат [Комедия, семейный, 2017] WEB-DLRip

salma3

859 | 249

1.37 ГБ

В этой теме нет новых непрочитанных сообщений. Детки напрокат [Комедия, семейный, 2017] WEB-DLRip 720p

salma3

813 | 226

1.66 ГБ

В этой теме нет новых непрочитанных сообщений. Кудамм – 56 - 3 / Все в порядке/ KuDamm 56 / It's Alright (Свен Бохзе / Sven Bohse) [2016г., Германия, драма, мелодрама, семейная сага, HDTVRip] sub

Alfredovich

1 | 1

1.42 ГБ

В этой теме нет новых непрочитанных сообщений. Все в порядке Соня (2017) CamRip

Dievas

257 | 64

1.42 ГБ

В этой теме нет новых непрочитанных сообщений. Лиза-лиса / Liza, a rókatündér [фэнтези, мелодрама, комедия, 2015] HDRip, avo

yurban

3111 | 113

1.46 ГБ

В этой теме нет новых непрочитанных сообщений. Хорошие дети / Good Kids [комедия, 2016] HDRip, Mvo

salma3

1216 | 378

1.37 ГБ


Начать новую тему Ответить на тему  [ 1 сообщение ] 




Для Мосгорсуда, Роскомнадзора и рекламодателей:: mosgorsud-torrent[собачка]yandex.ru
cron