Торрент файл
скачать торрент магнет ссылка Добавлен: 07 янв 2012, 19:06
Размер: 6.99 ГБ
Сидеров: 0
Личеров: 4
Автор

СообщениеДобавлено: 07 янв 2012, 19:06 

Не в сети
Супермодератор
Аватара пользователя
Дата регистрации:
11 апр 2010, 18:10
Спасибо: 5802 / 7
Сообщения: 56779
Графиня / The Countess


Перевод: Профессиональный (многоголосый, закадровый)
Субтитры: Русские
Формат: DVD9, DVD Video, MPEG2, AC3
Страна: Германия, Франция
Режиссер: Жюли Дельпи
Жанр: триллер, драма, биография, история
Продолжительность: 01:35:40
Год выпуска: 2009

В ролях: Жюли Дельпи, Даниэль Брюль, Уильям Хёрт, Анамария Маринка, Себастьян Бломберг, Адриана Альтарас, Чарли Хюбнер, Энди Гатьен, Мария Зимон, Фредерик Лау

Описание: XVII век. После смерти мужа графиня Елизавета Батори становится владелицей большого родового поместья и солидного состояния. Будучи одной из самых влиятельных и могущественных женщин в Венгрии, она одновременно вызывает у окружающих восхищение, страх и ненависть.

Однажды она влюбляется в соблазнительно молодого человека, который значительно моложе ее. Однако, после непродолжительной интрижки, тот оставляет ее. Уверенная в том, что всему виной более молодая и красивая соперница, Елизавета впадает в безумство и полагает, что кровь молодых девственниц способна вернуть ей молодость и красоту.


Рейтинг на IMDB: 6.2/10
Рейтинг КиноПоиск.RU: 5.979

Видео: 720x576 (PAL 16:9), 25,000 fps, MPEG-2 Video ~ 8500 kbps avg
Аудио #1: Русский: 48 kHz, AC3 Dolby Digital, 6 ch, ~ 448 kbps avg [Профессиональный (многоголосый, закадровый)]
Аудио #2: Русский: 48 kHz, AC3 Dolby Digital, 2 ch, ~ 192 kbps avg [Профессиональный (многоголосый, закадровый)]
Аудио #3: Английский: 48 kHz, AC3 Dolby Digital, 2 ch, 192 kbps avg [Оригинал]

Слоган: «Она пожертвовала всем ради ЛЮБВИ и остальными ради - КРАСОТЫ»

Доп.информация: [Лицензионное издание «СОЮЗ Видео»]
Meню озвученное, статичное, на русском языке, с навигацией по эпизодам. Все кнопки функциональны.


Общее
Полное имя: D:\DVD\Графиня\VIDEO_TS\VTS_05_2.VOB
Формат: MPEG-PS
Размер файла: 1024 Мбайт
Продолжительность: 15 м.
Общий поток: 9490 Кбит/сек

Видео
Идентификатор: 224 (0xE0)
Формат: MPEG Video
Версия формата: Version 2
Профиль формата: Main@Main
Параметр BVOP формата: Да
Параметр матрицы формата: По умолчанию
Параметры GOP формата: M=3, N=12
Продолжительность: 15 м.
Вид битрейта: Постоянный
Битрейт: 8500 Кбит/сек
Ширина: 720 пикс.
Высота: 576 пикс.
Соотношение сторон: 16:9
Частота кадров: 25,000 кадр/сек
Стандарт вещания: PAL
Цветовое пространство: YUV
Подвыборка цветности: 4:2:0
Битовая глубина: 8 бит
Тип развёртки: Чересстрочная
Порядок развёртки: Верхнее поле первое
Метод сжатия: С потерями
Бит/(Пиксели*Кадры): 0.820
Размер потока: 913 Мбайт (89%)

Аудио #1
Идентификатор: 128 (0x80)
Формат: AC-3
Формат/Информация: Audio Coding 3
Расширение режима: CM (complete main)
Продолжительность: 15 м.
Вид битрейта: Постоянный
Битрейт: 448 Кбит/сек
Канал(ы): 6 канала(ов)
Расположение каналов: Front: L C R, Side: L R, LFE
Частота: 48,0 КГц
Битовая глубина: 16 бит
Метод сжатия: С потерями
Задержка видео: -488 мс.
Размер потока: 48,3 Мбайт (5%)

Аудио #2
Идентификатор: 129 (0x81)
Формат: AC-3
Формат/Информация: Audio Coding 3
Расширение режима: CM (complete main)
Продолжительность: 15 м.
Вид битрейта: Постоянный
Битрейт: 192 Кбит/сек
Канал(ы): 2 канала(ов)
Расположение каналов: Front: L R
Частота: 48,0 КГц
Битовая глубина: 16 бит
Метод сжатия: С потерями
Задержка видео: -456 мс.
Размер потока: 20,7 Мбайт (2%)

Аудио #3
Идентификатор: 130 (0x82)
Формат: AC-3
Формат/Информация: Audio Coding 3
Расширение режима: CM (complete main)
Продолжительность: 15 м.
Вид битрейта: Постоянный
Битрейт: 192 Кбит/сек
Канал(ы): 2 канала(ов)
Расположение каналов: Front: L R
Частота: 48,0 КГц
Битовая глубина: 16 бит
Метод сжатия: С потерями
Задержка видео: -456 мс.
Размер потока: 20,7 Мбайт (2%)

Текст
Идентификатор: 32 (0x20)
Формат: RLE
Формат/Информация: Run-length encoding
Задержка видео: 1 с. 760 мс.



















Поделиться:




реклама партнёра


Вернуться к началу
 Профиль Отправить личное сообщение  
 
   Похожие торренты   Автор   Торрент   Размер 
В этой теме нет новых непрочитанных сообщений. Графиня из Гонконга / A Countess from Hong Kong [мелодрама, комедия, 1967] BDRip 1080p, Mvo

salma3

59 | 19

7.81 ГБ

В этой теме нет новых непрочитанных сообщений. Её сердце / A Mighty Heart [триллер, драма, военный, биография, история, 2007] Blu-Ray, Mvo+Sub

salma3

7 | 8

34.4 ГБ

В этой теме нет новых непрочитанных сообщений. Её сердце / A Mighty Heart [триллер, драма, военный, биография, история, 2007] BDRip-AVC, Dvo

salma3

30 | 6

1.37 ГБ

В этой теме нет новых непрочитанных сообщений. Эвита / Evita [Мюзикл, триллер, драма, биография, история, 1996] BDRip 1080p, Mvo+Sub

salma3

7 | 4

9.65 ГБ

В этой теме нет новых непрочитанных сообщений. В центре внимания / Spotlight (Том МакКарти) [2015, триллер, драма, биография, история, HDRip] mvo

Nickolas3435

448 | 44

2.05 ГБ

В этой теме нет новых непрочитанных сообщений. В центре внимания / Spotlight (Том МакКарти) [2015, триллер, драма, биография, история, BDRip] mvo

Nickolas3435

7336 | 699

1.46 ГБ

В этой теме нет новых непрочитанных сообщений. Эвита / Evita [Мюзикл, триллер, драма, биография, история, 1996] BDRip 720p, Mvo+Sub

salma3

13 | 3

5.84 ГБ


Начать новую тему Ответить на тему  [ 1 сообщение ] 




Для Мосгорсуда, Роскомнадзора и рекламодателей:: mosgorsud-torrent[собачка]yandex.ru