Торрент файл
скачать торрент магнет ссылка Добавлен: 07 янв 2012, 19:06
Размер: 5.77 ГБ
Сидеров: 0
Личеров: 5
Автор

СообщениеДобавлено: 07 янв 2012, 19:06 

Не в сети
Супермодератор
Аватара пользователя
Дата регистрации:
11 апр 2010, 18:10
Спасибо: 5801 / 7
Сообщения: 56779
Хамелеон / The Chameleon


Перевод: Профессиональный (многоголосый, закадровый)
Субтитры: Русские
Формат: DVD9, DVD Video, MPEG2, AC3
Страна: США, Канада, Франция
Режиссер: Жан-Поль Саломе
Жанр: триллер, драма, биография
Продолжительность: 01:30:13
Год выпуска: 2010

В ролях: Марк-Андре Гронден, Фамке Янссен, Эллен Баркин, Эмили де Рэйвин, Тори Киттлз, Брайан Джерати, Ник Стал, Джеймс ДюМонт, Ричи Монтгомери, Лэнс Э. Николс

Описание: Агенту Пропавший несколько лет назад подросток неожиданно возвращается домой. Семья безумно счастлива такому воссоединению. Правда, за эти годы многое изменилось, и теперь отношения внутри семейства сильно напряжены. Поэтому возвращение сына и брата для них, как бальзам на душу. Но что-то в этой истории не так. Специальный агент ФБР подозревает, что вернувшийся парень может оказаться не тем, за кого себя выдает. Почему же тогда семья продолжает настаивать, что это их ребенок? Только раскрыв тайны прошлого, можно узнать всю правду…

Рейтинг на IMDB: 5.5/10
Рейтинг КиноПоиск.RU: 6.692

Видео: 720x576 (PAL 16:9), 25,000 fps, MPEG-2 Video ~ 8500 kbps avg
Аудио #1: Русский: 48 kHz, AC3 Dolby Digital, 6 ch,~ 448 kbps avg [Профессиональный (многоголосый, закадровый)]
Аудио #2: Русский: 48 kHz, AC3 Dolby Digital, 2 ch, ~ 192 kbps avg [Профессиональный (многоголосый, закадровый)]
Аудио #3: Английский: 48 kHz, AC3 Dolby Digital, 2 ch, ~ 192 kbps avg [Оригинал]

Слоган: «Как Вы знаете то, что Вы видите, действительно правда?»

Доп.информация: [Лицензионное издание «СОЮЗ Видео»]
Meню озвученное, статичное, на русском языке, с навигацией по эпизодам. Все кнопки функциональны.


Общее
Полное имя: D:\DVD\Хамелеон\VIDEO_TS\VTS_06_2.VOB
Формат: MPEG-PS
Размер файла: 1024 Мбайт
Продолжительность: 16 м.
Общий поток: 8480 Кбит/сек

Видео
Идентификатор: 224 (0xE0)
Формат: MPEG Video
Версия формата: Version 2
Профиль формата: Main@Main
Параметр BVOP формата: Да
Параметр матрицы формата: По умолчанию
Продолжительность: 16 м.
Вид битрейта: Переменный
Битрейт: 7479 Кбит/сек
Номинальный битрейт: 8500 Кбит/сек
Ширина: 720 пикс.
Высота: 576 пикс.
Соотношение сторон: 16:9
Частота кадров: 25,000 кадр/сек
Стандарт вещания: PAL
Цветовое пространство: YUV
Подвыборка цветности: 4:2:0
Битовая глубина: 8 бит
Тип развёртки: Чересстрочная
Порядок развёртки: Верхнее поле первое
Метод сжатия: С потерями
Бит/(Пиксели*Кадры): 0.721
Размер потока: 903 Мбайт (88%)

Аудио #1
Идентификатор: 128 (0x80)
Формат: AC-3
Формат/Информация: Audio Coding 3
Расширение режима: CM (complete main)
Продолжительность: 16 м.
Вид битрейта: Постоянный
Битрейт: 448 Кбит/сек
Канал(ы): 6 канала(ов)
Расположение каналов: Front: L C R, Side: L R, LFE
Частота: 48,0 КГц
Битовая глубина: 16 бит
Метод сжатия: С потерями
Задержка видео: -712 мс.
Размер потока: 54,1 Мбайт (5%)

Аудио #2
Идентификатор: 129 (0x81)
Формат: AC-3
Формат/Информация: Audio Coding 3
Расширение режима: CM (complete main)
Продолжительность: 16 м.
Вид битрейта: Постоянный
Битрейт: 192 Кбит/сек
Канал(ы): 2 канала(ов)
Расположение каналов: Front: L R
Частота: 48,0 КГц
Битовая глубина: 16 бит
Метод сжатия: С потерями
Задержка видео: -616 мс.
Размер потока: 23,2 Мбайт (2%)

Аудио #3
Идентификатор: 130 (0x82)
Формат: AC-3
Формат/Информация: Audio Coding 3
Расширение режима: CM (complete main)
Продолжительность: 16 м.
Вид битрейта: Постоянный
Битрейт: 192 Кбит/сек
Канал(ы): 2 канала(ов)
Расположение каналов: Front: L R
Частота: 48,0 КГц
Битовая глубина: 16 бит
Метод сжатия: С потерями
Задержка видео: -712 мс.
Размер потока: 23,2 Мбайт (2%)

Текст
Идентификатор: 32 (0x20)
Формат: RLE
Формат/Информация: Run-length encoding
Задержка видео: 400 мс.



















Поделиться:




реклама партнёра


Вернуться к началу
 Профиль Отправить личное сообщение  
 
   Похожие торренты   Автор   Торрент   Размер 
В этой теме нет новых непрочитанных сообщений. Shadrack Chameleon - Shadrack Chameleon [1998, Psychedelic Rock, MP3]

PriZraK

0 | 1

83.17 МБ

В этой теме нет новых непрочитанных сообщений. Джими Хендрикс / All Is by My Side [Драма, биография, музыка, 2013] DVD9, Mvo+Sub [лицензия]

Dracon

42 | 4

5.75 ГБ

В этой теме нет новых непрочитанных сообщений. Chameleon - Rising [2013, Progressive Rock, MP3]

PriZraK

0 | 1

185.6 МБ

В этой теме нет новых непрочитанных сообщений. Во имя отца / In the Name of the Father [Триллер, драма, биография, экранизация, 1993] BDRip-AVC, Mvo

salma3

9 | 3

4.73 ГБ

В этой теме нет новых непрочитанных сообщений. Свой человек / The Insider [триллер, драма, биография, 1999] BDRip, Mvo

salma3

211 | 38

1.46 ГБ

В этой теме нет новых непрочитанных сообщений. Братья Крэй / The Krays [Триллер, драма, криминал, биография, 1990] WEB-DLRip, Mvo

salma3

13 | 3

1.45 ГБ

В этой теме нет новых непрочитанных сообщений. Её сердце / A Mighty Heart [триллер, драма, военный, биография, история, 2007] Blu-Ray, Mvo+Sub

salma3

7 | 8

34.4 ГБ


Начать новую тему Ответить на тему  [ 1 сообщение ] 




Для Мосгорсуда, Роскомнадзора и рекламодателей:: mosgorsud-torrent[собачка]yandex.ru