Торрент файл
скачать торрент магнет ссылка Добавлен: 07 янв 2012, 19:06
Размер: 6.81 ГБ
Сидеров: 0
Личеров: 4
Автор

СообщениеДобавлено: 07 янв 2012, 19:06 

Не в сети
Супермодератор
Аватара пользователя
Дата регистрации:
11 апр 2010, 18:10
Спасибо: 5798 / 7
Сообщения: 56779
Секреты / Ha-Sodot


Перевод: Профессиональный (многоголосый, закадровый)
Субтитры: Русские
Формат: DVD9, DVD Video, MPEG2, AC3
Страна: Франция, Израиль
Режиссер: Ави Нешер
Жанр: драма
Продолжительность: 02:01:49
Год выпуска: 2007

В ролях: Аня Букштейн, Дана Ивги, Фанни Ардан, Михаль Штамлер, Адир Миллер

Описание: Религиозная школа древнего каббалистического города Цфат. Дочь раввина Наоми делает все возможное, чтобы отсрочить свадьбу и продолжить учиться. Бунтарка Мишель послана в Цфат религиозными родителями из Франции для усмирения характера. Подруги знакомятся с загадочной француженкой Анук, которая ищет в Цфате покой и очищение. Но ортодоксальное общество отвергает ее. Стремясь помочь, девушки погружаются в мир страстей и рискуют своим будущим, чтобы освободить Анук от прошлого. Каждой приходится ответить на вопрос: как не изменить традициям и при этом остаться верной себе?

Рейтинг на IMDB: 7.2/10
Рейтинг МРАА: R
Рейтинг КиноПоиск.RU: 8.339

Видео: 720x576 (PAL 16:9), 25,000 fps, MPEG-2 Video ~ 8000 kbps avg
Аудио #1: Русский: 48 kHz, AC3 Dolby Digital, 6 ch, ~384 kbps avg [Профессиональный (многоголосый, закадровый)]
Аудио #2: Русский: 48 kHz, AC3 Dolby Digital, 2 ch, ~ 192 kbps avg [Профессиональный (многоголосый, закадровый)]
Аудио #3: Иврит: 48 kHz, AC3 Dolby Digital, 6 ch, ~ 384 kbps avg [Оригинал]

Доп.информация: [Лицензионное издание «Парадиз Видео»]
Meню озвученное, статичное, на русском языке, с навигацией по эпизодам. Все кнопки функциональны.


Общее
Полное имя: D:\DVD\Секреты\VIDEO_TS\VTS_01_4.VOB
Формат: MPEG-PS
Размер файла: 1024 Мбайт
Продолжительность: 20 м.
Общий поток: 7094 Кбит/сек

Видео
Идентификатор: 224 (0xE0)
Формат: MPEG Video
Версия формата: Version 2
Профиль формата: Main@Main
Параметр BVOP формата: Да
Параметр матрицы формата: По умолчанию
Параметры GOP формата: M=3, N=15
Продолжительность: 20 м.
Вид битрейта: Переменный
Битрейт: 5993 Кбит/сек
Номинальный битрейт: 8000 Кбит/сек
Ширина: 720 пикс.
Высота: 576 пикс.
Соотношение сторон: 16:9
Частота кадров: 25,000 кадр/сек
Стандарт вещания: PAL
Цветовое пространство: YUV
Подвыборка цветности: 4:2:0
Битовая глубина: 8 бит
Тип развёртки: Прогрессивная
Метод сжатия: С потерями
Бит/(Пиксели*Кадры): 0.578
Размер потока: 865 Мбайт (84%)

Аудио #1
Идентификатор: 128 (0x80)
Формат: AC-3
Формат/Информация: Audio Coding 3
Расширение режима: CM (complete main)
Продолжительность: 20 м.
Вид битрейта: Постоянный
Битрейт: 384 Кбит/сек
Канал(ы): 6 канала(ов)
Расположение каналов: Front: L C R, Side: L R, LFE
Частота: 48,0 КГц
Битовая глубина: 16 бит
Метод сжатия: С потерями
Задержка видео: -784 мс.
Размер потока: 55,4 Мбайт (5%)

Аудио #2
Идентификатор: 129 (0x81)
Формат: AC-3
Формат/Информация: Audio Coding 3
Расширение режима: CM (complete main)
Продолжительность: 20 м.
Вид битрейта: Постоянный
Битрейт: 192 Кбит/сек
Канал(ы): 2 канала(ов)
Расположение каналов: Front: L R
Частота: 48,0 КГц
Битовая глубина: 16 бит
Метод сжатия: С потерями
Задержка видео: -656 мс.
Размер потока: 27,7 Мбайт (3%)

Аудио #3
Идентификатор: 130 (0x82)
Формат: AC-3
Формат/Информация: Audio Coding 3
Расширение режима: CM (complete main)
Продолжительность: 20 м.
Вид битрейта: Постоянный
Битрейт: 384 Кбит/сек
Канал(ы): 6 канала(ов)
Расположение каналов: Front: L C R, Side: L R, LFE
Частота: 48,0 КГц
Битовая глубина: 16 бит
Метод сжатия: С потерями
Задержка видео: -784 мс.
Размер потока: 55,4 Мбайт (5%)

Текст
Идентификатор: 32 (0x20)
Формат: RLE
Формат/Информация: Run-length encoding
Задержка видео: 760 мс.

















Поделиться:




реклама партнёра


Вернуться к началу
 Профиль Отправить личное сообщение  
 
   Похожие торренты   Автор   Торрент   Размер 
В этой теме нет новых непрочитанных сообщений. Сват / Once I Was (Ави Нешер / Avi Nesher) [2010г., драма, DVDRip] Sub

Alfredovich

31 | 4

1.23 ГБ

В этой теме нет новых непрочитанных сообщений. Поворот налево в конце света / Sof Ha'Olam Smola (Ави Нешер / Avi Nesher) [2004г., драма, мелодрама, DVDRip-AVC] avo

Alfredovich

27 | 2

2.19 ГБ

В этой теме нет новых непрочитанных сообщений. Опасные секреты / Suspectes [S01] [триллер, детектив, 2007] HDTVRip, DVDRip, Mvo

salma3

32 | 6

2.59 ГБ

В этой теме нет новых непрочитанных сообщений. Чудеса / Plaot / The Wonders (Ави Нешер / Avi Nesher) [2013г., комедия, мистика, детектив, DVDRip] Sub

Alfredovich

9 | 4

1.41 ГБ

В этой теме нет новых непрочитанных сообщений. Секреты прошлого / Le passe [драма, детектив, 2013] BDRip 720p, Mvo+Sub[iTunes]

Dracon

5 | 2

6.89 ГБ

В этой теме нет новых непрочитанных сообщений. Секреты Голливуда / Hollywood Confidential [триллер, драма, криминал, 1997] DVDRip, Avo

salma3

4 | 2

1.37 ГБ

В этой теме нет новых непрочитанных сообщений. Секреты войны / Oorlogsgeheimen [драма, военный, семейный, 2014] BDRip 1080p, avo+sub

Dracon

3 | 4

9.76 ГБ


Начать новую тему Ответить на тему  [ 1 сообщение ] 




Для Мосгорсуда, Роскомнадзора и рекламодателей:: mosgorsud-torrent[собачка]yandex.ru