Торрент файл
скачать торрент магнет ссылка Добавлен: 07 янв 2012, 19:06
Размер: 5.86 ГБ
Сидеров: 1
Личеров: 4
Автор

СообщениеДобавлено: 07 янв 2012, 19:06 

Не в сети
Супермодератор
Аватара пользователя
Дата регистрации:
11 апр 2010, 18:10
Спасибо: 5960 / 7
Сообщения: 56770
Голод / The Donner Party


Перевод: Профессиональный (многоголосый, закадровый)
Cубтитры:Oтсутствуют
Формат: DVD9, DVD Video, MPEG2, AC3
Страна: США
Режиссер: Т.Дж. Мартин
Жанр: драма, вестерн
Продолжительность: 01:24:44
Год выпуска: 2009

В ролях: Криспин Гловер, Клейн Кроуфорд, Michele Santopietro, Марк Бун Джуниор, Кристиан Кэйн, Криспиан Белфрадж, Катрин Блэк, Джэми Браун, Джек Кайл, Кэри Мур

Описание: В 1840-х группа эмигрантов начинает опасный путь на Запад в Калифорнию. Когда зимой метель сковывает горы Сьерра-Невада льдом, поселенцы сбиваются с курса и вскоре оказываются в ловушке, замерзшие и голодные. Угроза неминуемой смерти убивает дух товарищества, и скоро безумие голода овладевает людьми…

Рейтинг на IMDB: 4.8/10
Рейтинг КиноПоиск.RU: 3.933
Рейтинг MPAA: R

Видео: 720x576, (PAL 16:9), 25,000 кадр/сек, MPEG 2 Video, ~7500 Кбит/сек
Аудио#1:Русский 48,0 КГц, Dolby AC3, 6 ch, ~448 Кбит/сек [Профессиональный (многоголосый закадровый)]
Аудио#2:Английский 48,0 КГц, Dolby AC3, 6 ch, ~448 Кбит/сек [Оригинал]

Слоган: «Выжить любой ценой»

Дата выхода DVD: 17 февраля 2011, «Мистерия Звука»

Доп.информация: Лицензионное издание "Мистерия Звука"

Общее
Полное имя: C:\Documents and Settings\Admin.MICROSOF-68219C\Мои документы\Загрузки\Golod\VIDEO_TS\VTS_02_5.VOB
Формат: MPEG-PS
Размер файла: 1024 Мбайт
Продолжительность: 16 м.
Общий поток: 8535 Кбит/сек

Видео
Идентификатор: 224 (0xE0)
Формат: MPEG Video
Версия формата: Version 2
Профиль формата: Main@Main
Параметр BVOP формата: Да
Параметр матрицы формата: По умолчанию
Продолжительность: 16 м.
Вид битрейта: Постоянный
Битрейт: 7500 Кбит/сек
Ширина: 720 пикс.
Высота: 576 пикс.
Соотношение сторон: 16:9
Частота кадров: 25,000 кадр/сек
Стандарт вещания: PAL
Цветовое пространство: YUV
Подвыборка цветности: 4:2:0
Битовая глубина: 8 бит
Тип развёртки: Чересстрочная
Порядок развёртки: Верхнее поле первое
Метод сжатия: С потерями
Бит/(Пиксели*Кадры): 0.723
Размер потока: 896 Мбайт (88%)

Аудио #1
Идентификатор: 189 (0xBD)-128 (0x80)
Формат: AC-3
Формат/Информация: Audio Coding 3
Расширение режима: CM (complete main)
Режим смешивания: DVD-Video
Продолжительность: 16 м.
Вид битрейта: Постоянный
Битрейт: 448 Кбит/сек
Канал(ы): 6 канала(ов)
Расположение каналов: Front: L C R, Side: L R, LFE
Частота: 48,0 КГц
Битовая глубина: 16 бит
Метод сжатия: С потерями
Задержка видео: -184 мс.
Размер потока: 53,7 Мбайт (5%)

Аудио #2
Идентификатор: 189 (0xBD)-129 (0x81)
Формат: AC-3
Формат/Информация: Audio Coding 3
Расширение режима: CM (complete main)
Режим смешивания: DVD-Video
Продолжительность: 16 м.
Вид битрейта: Постоянный
Битрейт: 448 Кбит/сек
Канал(ы): 6 канала(ов)
Расположение каналов: Front: L C R, Side: L R, LFE
Частота: 48,0 КГц
Битовая глубина: 16 бит
Метод сжатия: С потерями
Задержка видео: -184 мс.
Размер потока: 53,7 Мбайт (5%)













Поделиться:




реклама партнёра


Вернуться к началу
 Профиль Отправить личное сообщение  
 
   Похожие торренты   Автор   Торрент   Размер 
В этой теме нет новых непрочитанных сообщений. Голод / The Donner Party [триллер, вестерн, драма, 2009] HDRip, Mvo [Лицензия]

salma3

13 | 5

1.46 ГБ

В этой теме нет новых непрочитанных сообщений. Охота / The Hunting Party [боевик, драма, вестерн, 1971] BDRip, Mvo

salma3

127 | 17

1.45 ГБ

В этой теме нет новых непрочитанных сообщений. Охота / The Hunting Party [боевик, драма, вестерн, 1971] BDRip 720p, Mvo

salma3

14 | 6

10.1 ГБ

В этой теме нет новых непрочитанных сообщений. Охота / The Hunting Party [боевик, драма, вестерн, 1971] BDRip 1080p, Mvo

salma3

45 | 30

9.37 ГБ

В этой теме нет новых непрочитанных сообщений. Голод / Hunger [ужасы, триллер, 2009] BDRip 1080p, Mvo

salma3

49 | 35

8.9 ГБ

В этой теме нет новых непрочитанных сообщений. Голод / Hunger [ужасы, триллер, 2009] BDRip-AVC, Mvo [Лицензия]

salma3

181 | 33

2.2 ГБ

В этой теме нет новых непрочитанных сообщений. Голод / Hunger [драма, биография, история, 2008] BDRemux 1080p, Avo

salma3

7 | 3

27.74 ГБ


Начать новую тему Ответить на тему  [ 1 сообщение ] 




Для Мосгорсуда, Роскомнадзора и рекламодателей:: mosgorsud-torrent[собачка]yandex.ru