Торрент файл
скачать торрент магнет ссылка Добавлен: 07 янв 2012, 19:06
Размер: 6.4 ГБ
Сидеров: 3
Личеров: 5
Автор

СообщениеДобавлено: 07 янв 2012, 19:06 

Не в сети
Супермодератор
Аватара пользователя
Дата регистрации:
11 апр 2010, 18:10
Спасибо: 5801 / 7
Сообщения: 56779
Её звали Никита / La femme Nikita


Перевод: Авторский (одноголосый)
Cубтитры:Отсутствуют
Формат: DVD9, DVD Video, MPEG2, AC3
Страна: Франция
Режиссер: Люк Бессон
Жанр: Боевик, драма
Продолжительность: 01:57:14
Год выпуска: 1990

В ролях: Анн Парийо,Жан-Юг Англад,Чеки Карио,Жанна Моро,Жан Рено,Жан Буиз

Описание: Никита (Анн Парийо) в начале фильма показана как девушка-наркоманка с криминальными наклонностями. Вместе с друзьями она пытается ограбить аптеку, принадлежащую родителям одного из друзей. Ограбление перерастает в перестрелку с полицией, в которой несколько полицейских и всех её друзей убивают, она также убивает одного из полицейских. Её арестовывают и суд приговаривает Никиту к пожизненному заключению, без права пересмотра дела в течение 30 лет. В тюрьме ей делают инъекцию и она теряет сознание. Никита приходит в себя в неизвестной комнате. Входит человек (Чеки Карио) и объясняет ей, что для всех она умерла от передозировки транквилизаторами и похоронена. В реальности, она в руках DGSE (фр. Direction générale de la sécurité extérieure — Главное управление внешней безопасности — французская секретная служба). У неё есть выбор — работать на разведку или умереть на самом деле. После некоторого сопротивления Никита принимает предложение. Никита обучается мастерству специального агента. Один из тренеров — Аманда (Жанна Моро) превращает Никиту из уличной девчонки в роковую женщину. Её выпускное задание — уничтожить неких иностранных официальных лиц в дорогом ресторане. После выполнения этого задания Никите разрешают покинуть учебный центр и начать новую жизнь в качестве «законсервированного» агента. Она поселяется в Париже, заводит роман с Марко (Жан-Юг Англад), который работает обычным кассиром в местном супермаркете. Тот ни о чём не догадывается и думает, что Никита работает медсестрой в госпитале. Карьера Никиты в разведке продолжается. Но в одной из миссий не всё идёт по плану. Требуется вмешательство «чистильщика» (Жан Рено).

Рейтинг Кинопоиск.RU: 7.452
Рейтинг IMDB: 7.5/10
Рейтинг MPAA: R

Видео: 720x480, (NTSC 16:9),23,976 кадр/сек, MPEG 2 Video, ~9802 Кбит/сек
Аудио#1:Русский 48КГц, AC36сh, ~384 кб/с[Авторский (одноголосый) (Андрей Гаврилов)]
Аудио#2:Французский 48КГц, AC36сh, ~448 кб/с [Оригинал]

Дополнительная информация:Исходником для сборки послужил американский R1; выкинута английская дорожка и заменена дорогой с переводом Андрея Гаврилова.

Общее
Полное имя: C:\Documents and Settings\Admin.MICROSOF-68219C\Мои документы\Загрузки\LA_FEMME_NIKITA\VIDEO_TS\VTS_02_5.VOB
Формат: MPEG-PS
Размер файла: 1024 Мбайт
Продолжительность: 23 м.
Общий поток: 6157 Кбит/сек

Видео
Идентификатор: 224 (0xE0)
Формат: MPEG Video
Версия формата: Version 2
Профиль формата: Main@Main
Параметр BVOP формата: Да
Параметр матрицы формата: По умолчанию
Параметры GOP формата: M=3, N=12
Продолжительность: 23 м.
Вид битрейта: Переменный
Битрейт: 5202 Кбит/сек
Номинальный битрейт: 9802 Кбит/сек
Ширина: 720 пикс.
Высота: 480 пикс.
Соотношение сторон: 16:9
Частота кадров: 23,976 кадр/сек
Стандарт вещания: NTSC
Цветовое пространство: YUV
Подвыборка цветности: 4:2:0
Битовая глубина: 8 бит
Тип развёртки: Прогрессивная
Порядок развёртки: 2:3 Pulldown
Метод сжатия: С потерями
Бит/(Пиксели*Кадры): 0.628
Размер потока: 865 Мбайт (84%)

Аудио #1
Идентификатор: 189 (0xBD)-128 (0x80)
Формат: AC-3
Формат/Информация: Audio Coding 3
Расширение режима: CM (complete main)
Режим смешивания: DVD-Video
Продолжительность: 23 м.
Вид битрейта: Постоянный
Битрейт: 384 Кбит/сек
Канал(ы): 6 канала(ов)
Расположение каналов: Front: L C R, Side: L R, LFE
Частота: 48,0 КГц
Битовая глубина: 16 бит
Метод сжатия: С потерями
Задержка видео: -302 мс.
Размер потока: 63,9 Мбайт (6%)

Аудио #2
Идентификатор: 189 (0xBD)-129 (0x81)
Формат: AC-3
Формат/Информация: Audio Coding 3
Расширение режима: CM (complete main)
Режим смешивания: DVD-Video
Продолжительность: 23 м.
Вид битрейта: Постоянный
Битрейт: 448 Кбит/сек
Канал(ы): 6 канала(ов)
Расположение каналов: Front: L C R, Side: L R, LFE
Частота: 48,0 КГц
Битовая глубина: 16 бит
Метод сжатия: С потерями
Задержка видео: -302 мс.
Размер потока: 74,5 Мбайт (7%)










Поделиться:




реклама партнёра


Вернуться к началу
 Профиль Отправить личное сообщение  
 
   Похожие торренты   Автор   Торрент   Размер 
В этой теме нет новых непрочитанных сообщений. Никита / Nikita [S01-04] [Боевик, триллер, драма, криминал, 2010-2013] WEB-DLRip, Dvo [NewStudio]

salma3

20 | 18

34.67 ГБ

В этой теме нет новых непрочитанных сообщений. Самоволка / Леон / Львиное сердце / Lionheart [боевик, драма, спорт, 1990] WEB-DL 720p, Avo [Гаврилов]

salma3

41 | 4

3.27 ГБ

В этой теме нет новых непрочитанных сообщений. Скорая помощь / The Ambulance [боевик, триллер, мелодрама, 1990] DVDRip, Avo [Гаврилов]

salma3

10 | 3

1.31 ГБ

В этой теме нет новых непрочитанных сообщений. Самоволка / Леон / Львиное сердце / Lionheart [боевик, 1990] HDRip, Avo [Гаврилов]

salma3

31 | 6

1.45 ГБ

В этой теме нет новых непрочитанных сообщений. Первый мститель: Противостояние / Captain America: Civil War [Фантастика, боевик, приключения, 2016] DVD9, Dub [Custom]

salma3

40 | 22

7.23 ГБ

В этой теме нет новых непрочитанных сообщений. Первая сила / The First Power [Триллер, ужасы, 1990] BDRip, Avo [Гаврилов]

salma3

37 | 0

1.46 ГБ

В этой теме нет новых непрочитанных сообщений. Люси / Lucy (Люк Бессон) [2014, Люк Бессон, WEBRip 720p | Чистый звук] Dub

Nickolas3435

8880 | 67

1.68 ГБ


Начать новую тему Ответить на тему  [ 1 сообщение ] 




Для Мосгорсуда, Роскомнадзора и рекламодателей:: mosgorsud-torrent[собачка]yandex.ru