Торрент файл
скачать торрент магнет ссылка Добавлен: 07 янв 2012, 19:05
Размер: 5.7 ГБ
Сидеров: 0
Личеров: 4
Автор

СообщениеДобавлено: 07 янв 2012, 19:05 

Не в сети
Супермодератор
Аватара пользователя
Дата регистрации:
11 апр 2010, 18:10
Спасибо: 5801 / 7
Сообщения: 56779
Будь со мной


Перевод: Не требуется
Субтитры: Отсутсвуют
Формат: DVD9, DVD Video, MPEG2, AC3
Страна: Россия
Режиссер: Мария Максимова
Жанр: мелодрама
Продолжительность: 01:13:30
Год выпуска: 2009

В ролях: Мария Бушмелева, Артур Смольянинов, Александр Рапопорт, Ричард Бондарев, Мила Липнер, Андрей Булатов, Вячеслав Чернышов

Описание: Она не может без него жить, а он хоть и отвечает взаимностью, но явно не способен на столь же глубокое чувство… Что делать в этом рациональном мире девушке, живущей сердцем? Продолжать страдания, или обратиться к лучшему кардиохирургу, который умеет заставлять сердца молчать?

Рейтинг на IMDB: 4.0/10
Рейтинг КиноПоиск.RU: 6.763

Видео: 720x576 (PAL 16:9), 25,000 fps, MPEG-2 Video ~ 8500 kbps avg
Аудио: Русский: 48 kHz, AC3 Dolby Digital, 6 ch, 448 kbps avg

Доп.информация: [Лицензионное издание «Флагман Трейд»]
Meню озвученное, частично анимированное, на русском языке, с навигацией по эпизодам. Все кнопки функциональны.


Общее
Полное имя: D:\DVD\Будь со мной\VTS_01_2.VOB
Формат: MPEG-PS
Размер файла: 1024 Мбайт
Продолжительность: 15 м.
Общий поток: 8964 Кбит/сек

Видео
Идентификатор: 224 (0xE0)
Формат: MPEG Video
Версия формата: Version 2
Профиль формата: Main@Main
Параметр BVOP формата: Да
Параметр матрицы формата: По умолчанию
Параметры GOP формата: M=3, N=12
Продолжительность: 15 м.
Вид битрейта: Переменный
Битрейт: 8500 Кбит/сек
Ширина: 720 пикс.
Высота: 576 пикс.
Соотношение сторон: 16:9
Частота кадров: 25,000 кадр/сек
Стандарт вещания: PAL
Цветовое пространство: YUV
Подвыборка цветности: 4:2:0
Битовая глубина: 8 бит
Тип развёртки: Чересстрочная
Порядок развёртки: Верхнее поле первое
Метод сжатия: С потерями
Бит/(Пиксели*Кадры): 0.820
Размер потока: 952 Мбайт (93%)

Аудио
Идентификатор: 128 (0x80)
Формат: AC-3
Формат/Информация: Audio Coding 3
Расширение режима: CM (complete main)
Продолжительность: 15 м.
Вид битрейта: Постоянный
Битрейт: 448 Кбит/сек
Канал(ы): 6 канала(ов)
Расположение каналов: Front: L C R, Side: L R, LFE
Частота: 48,0 КГц
Битовая глубина: 16 бит
Метод сжатия: С потерями
Задержка видео: -264 мс.
Размер потока: 51,2 Мбайт (5%)

















Поделиться:




реклама партнёра


Вернуться к началу
 Профиль Отправить личное сообщение  
 
   Похожие торренты   Автор   Торрент   Размер 
В этой теме нет новых непрочитанных сообщений. Будь мужчиной / Man Up (Бен Палмер) [мелодрама, комедия, 2015] HDRip, Mvo

Dracon

2464 | 394

1.46 ГБ

В этой теме нет новых непрочитанных сообщений. Будь моим Валентином / Be My Valentine [Мелодрама, 2013] SATRip, Mvo

salma3

71 | 5

1.17 ГБ

В этой теме нет новых непрочитанных сообщений. Будь моим Валентином / Be My Valentine [Мелодрама, 2013] DVDRip, Mvo

salma3

97 | 4

1.37 ГБ

В этой теме нет новых непрочитанных сообщений. Будь мужчиной / Man Up (Бен Палмер) [мелодрама, комедия, 2015] BDRip 720p, Mvo

Dracon

18 | 2

4.42 ГБ

В этой теме нет новых непрочитанных сообщений. Любимый, будь со мной / Моя любовь всегда со мной / Mere Sajana Saath Nibhana [мюзикл, драма, мелодрама, 1992] DVDRip, Avo [КПК]

salma3

3 | 4

449.35 МБ

В этой теме нет новых непрочитанных сообщений. Просто Мария 1 / Simplemente Maria / 1-143 серии из 143 [мелодрама, 1989-1990] VHSRip, Dub

salma3

2 | 13

38.19 ГБ

В этой теме нет новых непрочитанных сообщений. Гречанка [01-24 из 60] (Игорь Забара, Ирина Громозда, Мария Ткачева) [2014, Мелодрама, WEB-DL 1080p]

Nickolas3435

1 | 4

24.71 ГБ


Начать новую тему Ответить на тему  [ 1 сообщение ] 




Для Мосгорсуда, Роскомнадзора и рекламодателей:: mosgorsud-torrent[собачка]yandex.ru