Торрент файл
скачать торрент магнет ссылка Добавлен: 07 янв 2012, 19:05
Размер: 4.78 ГБ
Сидеров: 4
Личеров: 6
Автор

СообщениеДобавлено: 07 янв 2012, 19:05 

Не в сети
Супермодератор
Аватара пользователя
Дата регистрации:
11 апр 2010, 18:10
Спасибо: 5966 / 7
Сообщения: 56761
Чёрный Лебедь / Black Swan


Перевод: Профессиональный (полное дублирование)
Субтитры: Русские, украинские
Формат: DVD9, DVD Video, MPEG2, DTS
Страна: США
Режиссер: Даррен Аронофски
Жанр:триллер, драма
Продолжительность: 01:48:07
Год выпуска: 2010

В ролях: Натали Портман, Мила Кунис, Венсан Кассель, Барбара Херши, Вайнона Райдер

Описание: Сюжет картины строится вокруг примы балетного театра, у которой неожиданно появляется опасная конкурентка, способная отобрать у главной героини все партии. Соперничество усиливается по мере приближения ответственного выступления, которое должно решить все.

Рейтинг на IMDB: 8.5/10
Рейтинг МРАА:R
Рейтинг КиноПоиск.RU: 8.388

Видео: 720x576 (PAL 16:9), 25,000 fps, MPEG-2 Video ~ 7500 kbps avg
Аудио #1: Русский: 48 kHz, DTS Dolby Digital, 6 ch, ~ 384 kbps avg [Профессиональный (полное дублирование)]
Аудио #2: Русский: 48 kHz, DTS Dolby Digital, 6 ch, ~ 755 kbps avg [Профессиональный (полное дублирование)]

Доп.информация: [Лицензионное издание «Двадцатый Век Фокс СНГ»]
Meню озвученное, анимированное, на русском языке, с навигацией по эпизодам. Все кнопки функциональны.

Релиз группы :


Общее
Полное имя: D:\DVD\Чёрный Лебедь\VIDEO_TS\VTS_01_3.VOB
Формат: MPEG-PS
Размер файла: 1024 Мбайт
Продолжительность: 24 м.
Общий поток: 5827 Кбит/сек

Видео
Идентификатор: 224 (0xE0)
Формат: MPEG Video
Версия формата: Version 2
Профиль формата: Main@Main
Параметр BVOP формата: Да
Параметр матрицы формата: По умолчанию
Параметры GOP формата: M=3, N=15
Продолжительность: 24 м.
Вид битрейта: Переменный
Битрейт: 4572 Кбит/сек
Номинальный битрейт: 7500 Кбит/сек
Ширина: 720 пикс.
Высота: 576 пикс.
Соотношение сторон: 16:9
Частота кадров: 25,000 кадр/сек
Стандарт вещания: PAL
Цветовое пространство: YUV
Подвыборка цветности: 4:2:0
Битовая глубина: 8 бит
Тип развёртки: Чересстрочная
Порядок развёртки: Верхнее поле первое
Метод сжатия: С потерями
Бит/(Пиксели*Кадры): 0.441
Размер потока: 803 Мбайт (78%)

Аудио #1
Идентификатор: 128 (0x80)
Формат: AC-3
Формат/Информация: Audio Coding 3
Расширение режима: CM (complete main)
Продолжительность: 24 м.
Вид битрейта: Постоянный
Битрейт: 384 Кбит/сек
Канал(ы): 6 канала(ов)
Расположение каналов: Front: L C R, Side: L R, LFE
Частота: 48,0 КГц
Битовая глубина: 16 бит
Метод сжатия: С потерями
Задержка видео: -312 мс.
Размер потока: 67,5 Мбайт (7%)

Аудио #2
Идентификатор: 137 (0x89)
Формат: DTS
Формат/Информация: Digital Theater Systems
Продолжительность: 24 м.
Вид битрейта: Постоянный
Битрейт: 755 Кбит/сек
Канал(ы): 6 канала(ов)
Расположение каналов: Front: L C R, Side: L R, LFE
Частота: 48,0 КГц
Битовая глубина: 24 бит
Метод сжатия: С потерями
Задержка видео: -355 мс.
Размер потока: 133 Мбайт (13%)

Текст #1
Идентификатор: 32 (0x20)
Формат: RLE
Формат/Информация: Run-length encoding

Текст #2
Идентификатор: 33 (0x21)
Формат: RLE
Формат/Информация: Run-length encoding

















Поделиться:




реклама партнёра


Вернуться к началу
 Профиль Отправить личное сообщение  
 
   Похожие торренты   Автор   Торрент   Размер 
В этой теме нет новых непрочитанных сообщений. Чёрный лебедь / Black Swan [Триллер, драма, 2010] BDRemux 1080p, Dub

salma3

12 | 10

27.02 ГБ

В этой теме нет новых непрочитанных сообщений. [AssHoleFever.com / 21Sextury.com] Jessyka Swan (Black Swan) [28.07.2012 г., Brunette, Natural Tits, 2 on 1, Oral, Hardcore, Anal]

salma3

11 | 3

517.24 МБ

В этой теме нет новых непрочитанных сообщений. Чёрный пёс / Black Dog [боевик, триллер, драма, 1998] HDRip-AVC, Mvo

salma3

119 | 17

742.17 МБ

В этой теме нет новых непрочитанных сообщений. Черный пес / Black Dog [боевик, триллер, драма, криминал, 1998] BDRip, Mvo

salma3

84 | 10

1.46 ГБ

В этой теме нет новых непрочитанных сообщений. Принцесса Лебедь: Пират или принцесса? / The Swan Princess: Princess Tomorrow, Pirate Today! [Мультфильм, семейный, 2016] WEB-DL 720p, Mvo [iTunes]

salma3

590 | 117

2.51 ГБ

В этой теме нет новых непрочитанных сообщений. Принцесса Лебедь: Пират или принцесса? / The Swan Princess: Princess Tomorrow, Pirate Today! [Мультфильм, семейный, 2016] WEB-DLRip, Mvo [iTunes]

salma3

141 | 98

1.37 ГБ

В этой теме нет новых непрочитанных сообщений. Чёрный пёс / Black Dog [боевик, триллер, драма, криминал, 1998] BDRip 720p, Mvo+Dvo+Avo+Sub

salma3

40 | 31

5.7 ГБ


Начать новую тему Ответить на тему  [ 1 сообщение ] 




Для Мосгорсуда, Роскомнадзора и рекламодателей:: mosgorsud-torrent[собачка]yandex.ru