Торрент файл
скачать торрент магнет ссылка Добавлен: 07 янв 2012, 19:04
Размер: 7.86 ГБ
Сидеров: 0
Личеров: 4
Автор

СообщениеДобавлено: 07 янв 2012, 19:04 

Не в сети
Супермодератор
Аватара пользователя
Дата регистрации:
11 апр 2010, 18:10
Спасибо: 5802 / 7
Сообщения: 56779
Королева и кардинал / La reine et le cardinal


Перевод: Профессиональный (многоголосый, закадровый)
Субтитры:Русские
Формат: DVD9, DVD Video, MPEG2, AC3
Страна: Франция
Режиссер: Марк Ривьер
Жанр: история, драма
Продолжительность: 01:43:09
Год выпуска: 2009

В ролях: Филипп Торретон, Алессандра Мартинес, Марк Китти, Сирил Дескур, Карла Буттарацци, Мария Денарно, Жозефин де Мо, Кристоф Реймонд, Одри Флюрот, Николас Воде, Руди Розенберг, Ксавьер Де Гийбон, Сэмюэл Тейс, Дамьен Жуйро, Шарли Фуке, Леа Вяземски, Артур Воэн-Уайтхед, Антуан Де Прекел, Филипп дю Жанеран, Жан-Пол Комар, Венсан Мартен, Ив Верховен, Бенжамин Рамон, Эмерик Маршан, Джоффрой Тибо, Энни Плумет, Жан Делл, Лорен Кларет, Барбара Пробст, Сильвия Дегриз, Бернард Валаис, Жак Нордин, Патриция Зонта, Кристоф

Описание: Франция, 1642 год. После смерти Людовика XIII его вдова королева Анна Австрийская становится регентшей при малолетнем короле. Небывалого могущества в этот момент достигает член королевского совета кардинал Мазарини, заменивший на этом посту почившего кардинала Ришелье. Коварный и расчетливый, но вместе с тем талантливый и образованный человек, Мазарини сумел снискать расположение королевской особы.

На фоне сокрушительных восстаний, постоянных заговоров и изощренных интриг королеву и кардинала охватывает непреодолимая любовная страсть. Они знают, что им не суждено быть вместе, но готовы до последнего оберегать свои чувства, неся их сквозь нелегкие времена и тяжкие испытания.


Рейтинг на IMDB: 7.0/10
Рейтинг КиноПоиск.RU: 7.068

Видео: 720x576 (PAL 16:9), 25,000 fps, MPEG-2 Video ~ 8000 kbps avg
Аудио #1: Русский: 48 kHz, AC3 Dolby Digital, 2 ch, ~ 192 kbps avg [Профессиональный (многоголосый, закадровый)]
Аудио #2: Французский: 48 kHz, DTS Dolby Digital, 2 ch, ~ 192 kbps avg [Оригинал]

Доп.информация: [Лицензионное издание «Кармен Видео»]
Meню озвученное, частично анимированное, на русском языке, с навигацией по эпизодам. Все кнопки функциональны.


Общее
Полное имя: D:\DVD\Королева и кардинал\VIDEO_TS\VTS_03_3.VOB
Формат: MPEG-PS
Размер файла: 1024 Мбайт
Продолжительность: 25 м.
Общий поток: 5527 Кбит/сек

Видео
Идентификатор: 224 (0xE0)
Формат: MPEG Video
Версия формата: Version 2
Профиль формата: Main@Main
Параметр BVOP формата: Да
Параметр матрицы формата: По умолчанию
Параметры GOP формата: M=3, N=15
Продолжительность: 25 м.
Вид битрейта: Переменный
Битрейт: 5033 Кбит/сек
Номинальный битрейт: 8000 Кбит/сек
Ширина: 720 пикс.
Высота: 576 пикс.
Соотношение сторон: 16:9
Частота кадров: 25,000 кадр/сек
Стандарт вещания: PAL
Цветовое пространство: YUV
Подвыборка цветности: 4:2:0
Битовая глубина: 8 бит
Тип развёртки: Чересстрочная
Порядок развёртки: Верхнее поле первое
Метод сжатия: С потерями
Бит/(Пиксели*Кадры): 0.485
Размер потока: 932 Мбайт (91%)

Аудио #1
Идентификатор: 128 (0x80)
Формат: AC-3
Формат/Информация: Audio Coding 3
Расширение режима: CM (complete main)
Продолжительность: 25 м.
Вид битрейта: Постоянный
Битрейт: 192 Кбит/сек
Канал(ы): 2 канала(ов)
Расположение каналов: Front: L R
Частота: 48,0 КГц
Битовая глубина: 16 бит
Метод сжатия: С потерями
Задержка видео: -544 мс.
Размер потока: 35,6 Мбайт (3%)

Аудио #2
Идентификатор: 129 (0x81)
Формат: AC-3
Формат/Информация: Audio Coding 3
Расширение режима: CM (complete main)
Продолжительность: 25 м.
Вид битрейта: Постоянный
Битрейт: 192 Кбит/сек
Канал(ы): 2 канала(ов)
Расположение каналов: Front: L R
Частота: 48,0 КГц
Битовая глубина: 16 бит
Метод сжатия: С потерями
Задержка видео: -544 мс.
Размер потока: 35,6 Мбайт (3%)

















Поделиться:




реклама партнёра


Вернуться к началу
 Профиль Отправить личное сообщение  
 
   Похожие торренты   Автор   Торрент   Размер 
В этой теме нет новых непрочитанных сообщений. Мария - королева Шотландии / Mary Queen of Scots [драма, биография, история, 2013] BDRip, Mvo [НТВ+]

salma3

11 | 4

2.06 ГБ

В этой теме нет новых непрочитанных сообщений. Дама треф / Королева клубов / La dame de trefle [Драма, криминал, 2009] DVDRip-AVC, Mvo

salma3

23 | 6

2.05 ГБ

В этой теме нет новых непрочитанных сообщений. Убить священника / To Kill a Priest [триллер, драма, история, 1988] DVD9, Mvo

salma3

6 | 3

5.5 ГБ

В этой теме нет новых непрочитанных сообщений. Королева / Queen [драма, комедия, приключения, 2014] HDRip, Avo+Sub

salma3

15 | 6

2.05 ГБ

В этой теме нет новых непрочитанных сообщений. La Reine des Salopes / Janine Ganz Pervers / Совершенно извращенная Джанин (John Love (Alain Payet), Magma) [1991 г., Anal, Facial, VHSRip]

max77777

2 | 1

693.09 МБ

В этой теме нет новых непрочитанных сообщений. Королева пустыни / Queen of the Desert [Драма, биография, исторический, 2015] WEB-DLRip, dvo

Dracon

419 | 20

1.4 ГБ

В этой теме нет новых непрочитанных сообщений. Мария – королева Шотландии / Mary Queen of Scots [драма, мелодрама, биография, 2013] WEB-DLRip, Mvo

salma3

165 | 10

1.46 ГБ


Начать новую тему Ответить на тему  [ 1 сообщение ] 




Для Мосгорсуда, Роскомнадзора и рекламодателей:: mosgorsud-torrent[собачка]yandex.ru