Торрент файл
скачать торрент магнет ссылка Добавлен: 07 янв 2012, 19:04
Размер: 6.03 ГБ
Сидеров: 0
Личеров: 5
Автор

СообщениеДобавлено: 07 янв 2012, 19:04 

Не в сети
Супермодератор
Аватара пользователя
Дата регистрации:
11 апр 2010, 18:10
Спасибо: 5963 / 7
Сообщения: 56762
Дьявол / Devil


Перевод: Профессиональный (полное дублирование)
Субтитры: Украинские, английские, польские, латвийские, литовские, эстонские
Формат: DVD9, DVD Video, MPEG2, AC3
Страна: США
Режиссер: Джон Эрик Даудл
Жанр: ужасы, триллер, детектив
Продолжительность: 01:17:02
Год выпуска: 2010

В ролях: Крис Мессина, Логан Маршалл-Грин, Дженни О`Хара, Бояна Новакович, Букем Вудбайн, Джеффри Аренд, Джейкоб Варгас, Мэтт Крэвен, Джошуа Пиис, Каролин Давернас

Описание: Несколько людей, оказавшихся в застрявшем лифте, со временем понимают, что среди них присутствует сам дьявол.

Рейтинг на IMDB: 6.4/10
Рейтинг МРАА: PG-13
Рейтинг КиноПоиск.RU: 6.823

Видео: 720x576 (PAL 16:9), 25,000 fps, MPEG-2 Video ~ 9800 kbps avg
Аудио #1: Русский: 48 kHz, AC3 Dolby Digital, 6 ch, ~ 384 kbps avg [Профессиональный (полное дублирование)]
Аудио #2: Английский: 48 kHz, AC3 Dolby Digital, 6 ch, ~ 384 kbps avg [Оригинал]
Аудио #2: Польский: 48 kHz, AC3 Dolby Digital, 6 ch, ~ 384 kbps avg

Доп.информация: [Лицензионное издание «Юниверсал Пикчерс Рус»]
Meню озвученное, статичное, , на русском языке, с навигацией по эпизодам. Все кнопки функциональны.

Слоган: «Зло не приходит случайно»


Общее
Полное имя: D:\DVD\Djavol.2010.DVD-9\VIDEO_TS\VTS_01_4.VOB
Формат: MPEG-PS
Размер файла: 1024 Мбайт
Продолжительность: 15 м.
Общий поток: 9275 Кбит/сек

Видео
Идентификатор: 224 (0xE0)
Формат: MPEG Video
Версия формата: Version 2
Профиль формата: Main@Main
Параметр BVOP формата: Да
Параметр матрицы формата: По умолчанию
Параметры GOP формата: M=3, N=12
Продолжительность: 15 м.
Вид битрейта: Переменный
Битрейт: 7938 Кбит/сек
Номинальный битрейт: 9800 Кбит/сек
Ширина: 720 пикс.
Высота: 576 пикс.
Соотношение сторон: 16:9
Частота кадров: 25,000 кадр/сек
Стандарт вещания: PAL
Цветовое пространство: YUV
Подвыборка цветности: 4:2:0
Битовая глубина: 8 бит
Тип развёртки: Чересстрочная
Порядок развёртки: Верхнее поле первое
Метод сжатия: С потерями
Бит/(Пиксели*Кадры): 0.766
Размер потока: 876 Мбайт (86%)

Аудио #1
Идентификатор: 128 (0x80)
Формат: AC-3
Формат/Информация: Audio Coding 3
Расширение режима: CM (complete main)
Продолжительность: 15 м.
Вид битрейта: Постоянный
Битрейт: 384 Кбит/сек
Канал(ы): 6 канала(ов)
Расположение каналов: Front: L C R, Side: L R, LFE
Частота: 48,0 КГц
Битовая глубина: 16 бит
Метод сжатия: С потерями
Задержка видео: -240 мс.
Размер потока: 42,4 Мбайт (4%)

Аудио #2
Идентификатор: 129 (0x81)
Формат: AC-3
Формат/Информация: Audio Coding 3
Расширение режима: CM (complete main)
Продолжительность: 15 м.
Вид битрейта: Постоянный
Битрейт: 384 Кбит/сек
Канал(ы): 6 канала(ов)
Расположение каналов: Front: L C R, Side: L R, LFE
Частота: 48,0 КГц
Битовая глубина: 16 бит
Метод сжатия: С потерями
Задержка видео: -240 мс.
Размер потока: 42,4 Мбайт (4%)

Аудио #3
Идентификатор: 130 (0x82)
Формат: AC-3
Формат/Информация: Audio Coding 3
Расширение режима: CM (complete main)
Продолжительность: 15 м.
Вид битрейта: Постоянный
Битрейт: 384 Кбит/сек
Канал(ы): 6 канала(ов)
Расположение каналов: Front: L C R, Side: L R, LFE
Частота: 48,0 КГц
Битовая глубина: 16 бит
Метод сжатия: С потерями
Задержка видео: -240 мс.
Размер потока: 42,4 Мбайт (4%)

Текст #1
Идентификатор: 32 (0x20)
Формат: RLE
Формат/Информация: Run-length encoding
Задержка видео: 1 с. 840 мс.

Текст #2
Идентификатор: 33 (0x21)
Формат: RLE
Формат/Информация: Run-length encoding
Задержка видео: 1 с. 840 мс.

Текст #3
Идентификатор: 34 (0x22)
Формат: RLE
Формат/Информация: Run-length encoding
Задержка видео: 1 с. 840 мс.

Текст #4
Идентификатор: 35 (0x23)
Формат: RLE
Формат/Информация: Run-length encoding
Задержка видео: 1 с. 840 мс.

Текст #5
Идентификатор: 36 (0x24)
Формат: RLE
Формат/Информация: Run-length encoding
Задержка видео: 1 с. 840 мс.

Текст #6
Идентификатор: 37 (0x25)
Формат: RLE
Формат/Информация: Run-length encoding
Задержка видео: 1 с. 840 мс.



















Поделиться:




реклама партнёра


Вернуться к началу
 Профиль Отправить личное сообщение  
 
   Похожие торренты   Автор   Торрент   Размер 
В этой теме нет новых непрочитанных сообщений. Париж: Город мёртвых / As Above, So Below (Джон Эрик Даудл) [2014, ужасы, триллер, HDRip-AVC | Лицензия] Dub

Nickolas3435

554 | 33

744.02 МБ

В этой теме нет новых непрочитанных сообщений. Выхода нет / No Escape (Джон Эрик Даудл) [боевик, Триллер, 2015] HDRip, Dub [Звук с IPTV]

Dracon

31 | 1

1.46 ГБ

В этой теме нет новых непрочитанных сообщений. Выхода нет / No Escape (Джон Эрик Даудл) [боевик, Триллер, 2015] BDRemux 1080p, Dub+Sub [c IPTV]

Dracon

354 | 56

18.9 ГБ

В этой теме нет новых непрочитанных сообщений. Выхода нет / No Escape (Джон Эрик Даудл) [боевик, Триллер, 2015] BDRip 1080p, Dub+Sub [Звук с IPTV]

Dracon

254 | 30

12.35 ГБ

В этой теме нет новых непрочитанных сообщений. Дьявол во тьме / Devil in the Dark [ужасы, триллер, 2017] WEB-DLRip, Mvo

salma3

838 | 507

1.37 ГБ

В этой теме нет новых непрочитанных сообщений. Крампус: Дьявол возвращается / Krampus: The Devil Returns [ужасы, боевик, триллер, 2016] HDRip, Avo

salma3

72 | 31

1.16 ГБ

В этой теме нет новых непрочитанных сообщений. Крампус: Рождественский дьявол / Krampus: The Christmas Devil [ужасы, боевик, триллер, 2013] HDRip, Avo

salma3

218 | 18

1.46 ГБ


Начать новую тему Ответить на тему  [ 1 сообщение ] 




Для Мосгорсуда, Роскомнадзора и рекламодателей:: mosgorsud-torrent[собачка]yandex.ru