Торрент файл
скачать торрент магнет ссылка Добавлен: 07 янв 2012, 19:04
Размер: 5.53 ГБ
Сидеров: 16
Личеров: 14
Автор

СообщениеДобавлено: 07 янв 2012, 19:04 

Не в сети
Супермодератор
Аватара пользователя
Дата регистрации:
11 апр 2010, 18:10
Спасибо: 5801 / 7
Сообщения: 56779
Тайский вояж Степаныча

Перевод: Не требуется
Субтитры: Русские
Формат: DVD9, DVD Video, MPEG2, AC3
Страна: Россия
Режиссер: Максим Воронков
Жанр: комедия
Продолжительность: 01:32:16
Год выпуска: 2005

В ролях: Александр Пятков, Михаил Владимиров, Любовь Полищук, Илья Олейников, Станислав Садальский, Алиса Гребенщикова, Марина Ширшикова, Александр Аблязов, Юрий Сысоев, Александр Алексеев

Описание: 58-летний шофер КамАЗа — Тимофей Степанович Окопов — однажды на трудовом посту «накрыл» банду похитителей. За проявленный героизм владелец завода выдал Степанычу горящую путевку в Таиланд. Степаныч распрощался с супругой и полетел кутить в Бангкок, взяв в попутчики случайного знакомого — карточного шулера Сеню, обыгравшего накануне олигарха Ваху Воркутидзе.

Посланные Воркутидзе бандиты братья Качко терпят неудачу за неудачей в попытках добраться до денег и документов на завод. В конце концов, напуганные угрозами Воркутидзе, они приходят к Сене «с повинной». Сеня нанимает их телохранителями. Путевка Степаныча заканчивается. Степаныч возвращается на родной завод. Теперь ему остается только вспоминать о солнце, пляжах и девушке Ли. Но он верит, что когда — нибудь обязательно вернется в Таиланд. Коллеги подсмеиваются над этой его мечтой. Но на заводе опять ЧП! На этот раз грабят бухгалтерию! И Степаныч с криком: «Даешь Таиланд!», и любимой монтировкой в руках бросается на злоумышленников.


Рейтинг КиноПоиск.RU: 6.275

Видео: 720x576 (PAL 4:3 ), MPEG 2 Video, 25,000 fps, ~7000 kbps avg
Аудио #1: Русский 48 kHz, Dolby AC3, 6 ch, ~448 kbps avg
Аудио #2: Русский 48 kHz, Dolby AC3, 2 ch, ~448 kbps avg

Доп. информация:
    [Лицензионное издание, «Первая Видеокомпания», PAL 4:3]
  • Meню озвученное, частично анимированное на русском языке, с навигацией по эпизодам. Все кнопки функциональны.




















Общее
Полное имя: D:\Моя\Раздача\tayskiy_voyage_[tfile.ru]\VIDEO_TS\VTS_04_1.VOB
Формат: MPEG-PS
Размер файла: 1024 Мбайт
Продолжительность: 17 м.
Общий поток: 8021 Кбит/сек

Видео
Идентификатор: 224 (0xE0)
Формат: MPEG Video
Версия формата: Version 2
Профиль формата: Main@Main
Параметр BVOP формата: Да
Параметр матрицы формата: По умолчанию
Параметры GOP формата: M=3, N=12
Продолжительность: 17 м.
Вид битрейта: Постоянный
Битрейт: 7000 Кбит/сек
Ширина: 720 пикс.
Высота: 576 пикс.
Соотношение сторон: 4:3
Частота кадров: 25,000 кадр/сек
Стандарт вещания: PAL
Цветовое пространство: YUV
Подвыборка цветности: 4:2:0
Битовая глубина: 8 бит
Тип развёртки: Чересстрочная
Порядок развёртки: Верхнее поле первое
Метод сжатия: С потерями
Бит/(Пиксели*Кадры): 0.675
Размер потока: 889 Мбайт (87%)

Аудио #1
Идентификатор: 189 (0xBD)-128 (0x80)
Формат: AC-3
Формат/Информация: Audio Coding 3
Расширение режима: CM (complete main)
Режим смешивания: DVD-Video
Продолжительность: 17 м.
Вид битрейта: Постоянный
Битрейт: 448 Кбит/сек
Канал(ы): 2 канала(ов)
Расположение каналов: Front: L R
Частота: 48,0 КГц
Битовая глубина: 16 бит
Метод сжатия: С потерями
Размер потока: 57,2 Мбайт (6%)

Аудио #2
Идентификатор: 189 (0xBD)-129 (0x81)
Формат: AC-3
Формат/Информация: Audio Coding 3
Расширение режима: CM (complete main)
Режим смешивания: DVD-Video
Продолжительность: 17 м.
Вид битрейта: Постоянный
Битрейт: 448 Кбит/сек
Канал(ы): 6 канала(ов)
Расположение каналов: Front: L C R, Side: L R, LFE
Частота: 48,0 КГц
Битовая глубина: 16 бит
Метод сжатия: С потерями
Размер потока: 57,2 Мбайт (6%)

Текст
Идентификатор: 189 (0xBD)-32 (0x20)
Формат: RLE
Формат/Информация: Run-length encoding
Режим смешивания: DVD-Video

Меню


Поделиться:




реклама партнёра


Вернуться к началу
 Профиль Отправить личное сообщение  
 
   Похожие торренты   Автор   Торрент   Размер 
В этой теме нет новых непрочитанных сообщений. Кавказская пленница! (Максим Воронков) [комедия, 2014] WEB-DL 1080p

Dracon

304 | 16

3.32 ГБ

В этой теме нет новых непрочитанных сообщений. Кавказская пленница! (Максим Воронков) [комедия, 2014] WEB-DLRip

Dracon

1686 | 82

1.37 ГБ

В этой теме нет новых непрочитанных сообщений. Крымский вояж + 15 фото [2014 г., Amateur, CamRip]

Dievas

12 | 3

303.75 МБ

В этой теме нет новых непрочитанных сообщений. Недооформлен Вояж / Katerina Kay, Natasha Voya (Voyage) (2014) SiteRip Данный торрент является блокированным, причина: недооформленный торрент

friizze

62 | 11

209.36 МБ

В этой теме нет новых непрочитанных сообщений. Аватар: Легенда об Аанге Книга первая / Avatar: The Last Airbender The book the First [Сезон: 1 / Серии: 20] [приключения, фэнтези, 2005] DVD9, Dub

hobbit1021

0 | 3

31.86 ГБ

В этой теме нет новых непрочитанных сообщений. Ёлки лохматые (Максим Свешников) [Комедия, Семейный, 2014] TC

Dracon

21 | 3

1.37 ГБ

В этой теме нет новых непрочитанных сообщений. Интерны [12х01-15 из 15] (Максим Пежемский) [Комедия, 2015] WEB-DL 720p

Dracon

561 | 371

7.89 ГБ


Начать новую тему Ответить на тему  [ 1 сообщение ] 




Для Мосгорсуда, Роскомнадзора и рекламодателей:: mosgorsud-torrent[собачка]yandex.ru