Торрент файл
скачать торрент магнет ссылка Добавлен: 07 янв 2012, 19:03
Размер: 7.7 ГБ
Сидеров: 10
Личеров: 9
Автор

СообщениеДобавлено: 07 янв 2012, 19:03 

Не в сети
Супермодератор
Аватара пользователя
Дата регистрации:
11 апр 2010, 18:10
Спасибо: 5960 / 7
Сообщения: 56765
Хроники Нарнии: Принц Каспиан / The Chronicles of Narnia: Prince Caspian


Перевод: Профессиональный (полное дублирование)
Субтитры:Русские, английские
Формат:DVD9, DVD Video, MPEG2, AC3 / DTS
Страна:США, Польша, Чехия, Словения
Режиссер:Эндрю Адамсон
Жанр:Фэнтези, боевик, приключения, семейный
Продолжительность:02:29:58
Год выпуска:2008

В ролях: Бен Барнс, Джорджи Хенли, Скандар Кейнс, Уильям Моусли, Анна Попплуэлл, Серджио Кастеллитто, Питер Динклэйдж, Уорвик Дэвис, Винсент Грасс, Пьерфранческо Фавино

Описание: Люси, Сьюзен, Эдмунд и Питер Пэванси возвращаются в Нарнию. В Англии прошло совсем немного времени, а в Нарнии — века. Страна находится под гнетом зловещего короля Мираза. Но у волшебного королевства есть надежда — юный принц Каспиан. Чтобы помочь Каспиану отвоевать трон, четверо героев собирают армию мифических существ во главе с Асланом — основателем и покровителем Нарнии…

Рейтинг КиноПоиск.RU: 6.918
Рейтинг IMDb: 6.8/10
Рейтинг MPAA: PG

Видео:720x576 (PAL 16:9), 24.000 fps, MPEG2 Video, ~7648 kbps avg
Аудио #1:Русский: 48 kHz, Dolby AC3, 3/2 (L,C,R,l,r) + LFE ch, ~448 kbps avg [Профессиональный (полное дублирование)]
Аудио #2:Английский: 48 kHz, Dolby AC3, 2 (L,R) ch, ~192 kbps avg [Комментарии]
Аудио #3:Английский: 48 kHz, DTS, 3/2 (L,C,R,l,r) + LFE ch, ~1510 kbps avg [Оригинал]

Слоган:«Всё, что вы знаете, скоро изменится»

Общее
Полное имя: L:\фильмы в DVD\Хроники Нарнии Принц Каспиан - The Chronicles of Narnia Prince Caspian (200 DVD-9\VIDEO_TS\VTS_01_1.VOB
Формат: MPEG-PS
Размер файла: 1024 Мбайт
Продолжительность: 19 м.
Общий поток: 7163 Кбит/сек

Видео
Идентификатор: 224 (0xE0)
Формат: MPEG Video
Версия формата: Version 2
Профиль формата: Main@Main
Параметр BVOP формата: Да
Параметр матрицы формата: По умолчанию
Продолжительность: 19 м.
Вид битрейта: Переменный
Битрейт: 4871 Кбит/сек
Номинальный битрейт: 7648 Кбит/сек
Ширина: 720 пикс.
Высота: 576 пикс.
Соотношение сторон: 16:9
Частота кадров: 24,000 кадр/сек
Стандарт вещания: PAL
Цветовое пространство: YUV
Подвыборка цветности: 4:2:0
Битовая глубина: 8 бит
Тип развёртки: Прогрессивная
Порядок развёртки: 2:2:2:2:2:2:2:2:2:2:2:3 Pulldown
Метод сжатия: С потерями
Бит/(Пиксели*Кадры): 0.489
Размер потока: 696 Мбайт (68%)

Аудио #1
Идентификатор: 189 (0xBD)-128 (0x80)
Формат: AC-3
Формат/Информация: Audio Coding 3
Расширение режима: CM (complete main)
Режим смешивания: DVD-Video
Продолжительность: 19 м.
Вид битрейта: Постоянный
Битрейт: 448 Кбит/сек
Канал(ы): 6 канала(ов)
Расположение каналов: Front: L C R, Side: L R, LFE
Частота: 48,0 КГц
Битовая глубина: 16 бит
Метод сжатия: С потерями
Размер потока: 64,0 Мбайт (6%)

Аудио #2
Идентификатор: 189 (0xBD)-130 (0x82)
Формат: AC-3
Формат/Информация: Audio Coding 3
Расширение режима: CM (complete main)
Режим смешивания: DVD-Video
Продолжительность: 19 м.
Вид битрейта: Постоянный
Битрейт: 192 Кбит/сек
Канал(ы): 2 канала(ов)
Расположение каналов: Front: L R
Частота: 48,0 КГц
Битовая глубина: 16 бит
Метод сжатия: С потерями
Размер потока: 27,4 Мбайт (3%)

Аудио #3
Идентификатор: 189 (0xBD)-137 (0x89)
Формат: DTS
Формат/Информация: Digital Theater Systems
Режим смешивания: DVD-Video
Продолжительность: 19 м.
Вид битрейта: Постоянный
Битрейт: 1510 Кбит/сек
Канал(ы): 6 канала(ов)
Расположение каналов: Front: L C R, Side: L R, LFE
Частота: 48,0 КГц
Битовая глубина: 24 бит
Метод сжатия: С потерями
Размер потока: 216 Мбайт (21%)

Меню
[b]






[b]













[b]Поделиться:




реклама партнёра


Вернуться к началу
 Профиль Отправить личное сообщение  
 
   Похожие торренты   Автор   Торрент   Размер 
В этой теме нет новых непрочитанных сообщений. Хроники Нарнии: Принц Каспиан / The Chronicles of Narnia: Prince Caspian [фэнтези, боевик, приключения, 2008] BDRip 720p, Dub+Sub

salma3

66 | 20

4.37 ГБ

В этой теме нет новых непрочитанных сообщений. Хроники мутантов / Mutant Chronicles [фантастика, боевик, приключения, 2008] BDRip-AVC, Dub

salma3

182 | 31

742.7 МБ

В этой теме нет новых непрочитанных сообщений. Темный принц / Dracula: The Dark Prince (Тео Пирри) [Фэнтези, 2013] BDRip 1080p, avo

Dracon

12 | 4

8.85 ГБ

В этой теме нет новых непрочитанных сообщений. Темный принц / Dracula: The Dark Prince (Тео Пирри) [Фэнтези, 2013] BDRip 720p, avo

Dracon

68 | 7

4.51 ГБ

В этой теме нет новых непрочитанных сообщений. Принц города / Prince of the City [драма, криминал, 1981] WEB-DLRip-AVC, Avo

salma3

56 | 17

2.9 ГБ

В этой теме нет новых непрочитанных сообщений. Сказочный принц / Prince Charming [фэнтези, мелодрама, комедия, 2001] DVDRip, Dvo

salma3

62 | 34

1.37 ГБ

В этой теме нет новых непрочитанных сообщений. Дракула: Тёмный принц / Dracula: The Dark Prince (Тео Пирри) [Фэнтези, 2013] HDRip, avo

Dracon

12 | 4

1.35 ГБ


Начать новую тему Ответить на тему  [ 1 сообщение ] 




Для Мосгорсуда, Роскомнадзора и рекламодателей:: mosgorsud-torrent[собачка]yandex.ru