Торрент файл
скачать торрент магнет ссылка Добавлен: 07 янв 2012, 19:03
Размер: 6.23 ГБ
Сидеров: 8
Личеров: 3
Автор

СообщениеДобавлено: 07 янв 2012, 19:03 

Не в сети
Супермодератор
Аватара пользователя
Дата регистрации:
11 апр 2010, 18:10
Спасибо: 5802 / 7
Сообщения: 56779
Поцелуй сквозь стену


Перевод: Не требуется
Субтитры: Отсутсвуют
Формат: DVD9, DVD Video, MPEG2, AC3
Страна: Россия
Режиссер: Вартан Акопян
Жанр: фантастика, мелодрама, комедия
Продолжительность:01:26:26
Год выпуска: 2011

В ролях: Антон Шагин, Александр Адабашьян, Сергей Газаров, Светлана Немоляева, Иван Охлобыстин, Сосо Павлиашвили, Павел Воля, Людмила Соловьева, Михаил Тарабукин, Карина Андоленко

Описание: Что нужно сделать, чтобы добиться любви дерзкой журналистки, да еще по имени Алиса? Подарить ей лютики? Сказать: «Алиса, лисичка моя». Подкатить на карете? Или тупо завалить ее деньгами и подарками? Пока Кеша, помощник знаменитого фокусника, ломает над этим голову, его увольняют с работы и он остается с двумя десятками в кармане и чувством, что жизнь не удалась. Да и те клянчит какой-то бродяга, обещая исполнить любое его желание. А после встречи с ним, Кеша осознает: Он умеет проходить сквозь стены! Его новый дар — путь к счастью. Но даже, если все стены мира — не помеха, как пробиться к сердцу любимой?

Рейтинг на IMDB: 5.1/10
Рейтинг КиноПоиск.RU: 4.850

Видео: 720x576 (PAL 16:9), 25,000 fps, MPEG-2 Video ~ 8 500 kbps avg
Аудио #1: Русский: 48 kHz, AC3 Dolby Digital, 6 ch, ~ 448 kbps avg
Аудио #2: Русский: 48 kHz, AC3 Dolby Digital, 2 ch, ~ 192kbps avg

Доп.информация: [Лицензионное издание «Парадиз Видео»]
Meню озвученное, частично анимированное, на русском языке, с навигацией по эпизодам. Все кнопки функциональны.

Слоган: «Любовь и... никакого мошенничества»


General
Complete name: D:\DVD\Поцелуй сквозь стену\VIDEO_TS\VTS_01_3.VOB
Format: MPEG-PS
File size: 1 024 MiB
Duration: 17mn 16s
Overall bit rate: 8 284 Kbps

Video
ID: 224 (0xE0)
Format: MPEG Video
Format version: Version 2
Format profile: Main@Main
Format settings, BVOP: Yes
Format settings, Matrix: Default
Format settings, GOP: M=3, N=15
Duration: 17mn 16s
Bit rate mode: Variable
Bit rate: 7 480 Kbps
Nominal bit rate: 8 500 Kbps
Width: 720 pixels
Height: 576 pixels
Display aspect ratio: 16:9
Frame rate: 25.000 fps
Standard: PAL
Color space: YUV
Chroma subsampling: 4:2:0
Bit depth: 8 bits
Scan type: Interlaced
Scan order: Top Field First
Bits/(Pixel*Frame): 0.721
Stream size: 924 MiB (90%)

Audio #1
ID: 128 (0x80)
Format: AC-3
Format/Info: Audio Coding 3
Mode extension: CM (complete main)
Duration: 17mn 16s
Bit rate mode: Constant
Bit rate: 448 Kbps
Channel(s): 6 channels
Channel positions: Front: L C R, Side: L R, LFE
Sampling rate: 48.0 KHz
Bit depth: 16 bits
Video delay: -264ms
Stream size: 55.4 MiB (5%)

Audio #2
ID: 129 (0x81)
Format: AC-3
Format/Info: Audio Coding 3
Mode extension: CM (complete main)
Duration: 17mn 16s
Bit rate mode: Constant
Bit rate: 192 Kbps
Channel(s): 2 channels
Channel positions: Front: L R
Sampling rate: 48.0 KHz
Bit depth: 16 bits
Video delay: -232ms
Stream size: 23.7 MiB (2%)



















Поделиться:




реклама партнёра


Вернуться к началу
 Профиль Отправить личное сообщение  
 
   Похожие торренты   Автор   Торрент   Размер 
В этой теме нет новых непрочитанных сообщений. Учителя [01-08 из 08] (Вартан Акопян) [2014, Мелодрама, HDTVRip]

Nickolas3435

423 | 66

5.28 ГБ

В этой теме нет новых непрочитанных сообщений. Поцелуй на удачу / Just My Luck [Комедия, Мелодрама, 2006] BDRip, Mvo

salma3

116 | 6

1.45 ГБ

В этой теме нет новых непрочитанных сообщений. Поцелуй понарошку / Kissing a Fool [комедия, мелодрама, 1998] DVDRip, Dvo+Avo

salma3

11 | 3

1.46 ГБ

В этой теме нет новых непрочитанных сообщений. Шанхайский поцелуй / Shanghai Kiss [драма, мелодрама, комедия, 2007] DVDRip, Mvo

salma3

79 | 8

1.37 ГБ

В этой теме нет новых непрочитанных сообщений. Прощальный поцелуй / The Last Kiss [Комедия, мелодрама, драма, 2006] ВDRip 1080р, Dub+Sub

salma3

122 | 123

3.88 ГБ

В этой теме нет новых непрочитанных сообщений. Поцелуй меня на прощание / Kiss Me Goodbye [фэнтези, мелодрама, комедия, 1982] DVDRip, Mvo

salma3

50 | 2

1.46 ГБ

В этой теме нет новых непрочитанных сообщений. Шанхайский поцелуй / Shanghai Kiss [Комедия, драма, мелодрама, 2007] BDRip 720p, Mvo+Sub

salma3

50 | 12

7.46 ГБ


Начать новую тему Ответить на тему  [ 1 сообщение ] 




Для Мосгорсуда, Роскомнадзора и рекламодателей:: mosgorsud-torrent[собачка]yandex.ru