Торрент файл
скачать торрент магнет ссылка Добавлен: 07 янв 2012, 19:03
Размер: 7.33 ГБ
Сидеров: 0
Личеров: 5
Автор

СообщениеДобавлено: 07 янв 2012, 19:03 

Не в сети
Супермодератор
Аватара пользователя
Дата регистрации:
11 апр 2010, 18:10
Спасибо: 5963 / 7
Сообщения: 56762
Человек и его собака / Un homme et son chien


Перевод: Профессиональный (многоголосый, закадровый)
Субтитры: Русские
Формат: DVD9, DVD Video, MPEG2, AC3
Страна: Франция, Италия
Режиссер: Франсис Юстер
Жанр: драма
Продолжительность: 01:33:54
Год выпуска: 2008

В ролях: Жан-Поль Бельмондо, Афсия Херзи, Юлика Йенкинс, Оливье Бельмондо, Жан-Пьер Бернар, Мишель Бернье, Сара Биазини, Патрик Боссо, Рачида Бракни, Николь Кальфан, Пьер Кассигнард, Валерия Кавалли, Долорес Чаплин, Жан Дюжарден, Антуан Дюлери, Франсуаза Фабиан

Описание: 74-летний пенсионер Шарль выгнан из дома и покинут всеми, кроме своей собаки Клапа. В отчаяньи старик решает покончить с собой, бросившись под поезд, но Клап спасает ему жизнь…

Рейтинг на IMDB: 4.7/10
Не рекомендуется для просмотра лицам моложе 14 лет!
Рейтинг КиноПоиск.RU: 7.259

Видео: 720x576 (PAL 2.35:1), 25,000 fps, MPEG-2 Video ~ 9 000 kbps avg
Аудио #1: Русский: 48 kHz, AC3 Dolby Digital, 6 ch, ~ 448 kbps avg [Профессиональный (многоголосый, закадровый)]
Аудио #2: Французский: 48 kHz, AC3 Dolby Digital, 6 ch, ~ 448 kbps avg [Оригинал]

Доп.информация: [Лицензионное издание «RUSCICO»]
Meню озвученное, частично анимированное, на русском языке, с навигацией по эпизодам. Все кнопки функциональны.


General
Complete name: D:\DVD\Человек и его собака\VIDEO_TS\VTS_03_2.VOB
Format: MPEG-PS
File size: 1 024 MiB
Duration: 20mn 8s
Overall bit rate: 7 106 Kbps

Video
ID: 224 (0xE0)
Format: MPEG Video
Format version: Version 2
Format profile: Main@Main
Format settings, BVOP: Yes
Format settings, Matrix: Default
Format settings, GOP: M=3, N=12
Duration: 20mn 8s
Bit rate mode: Variable
Bit rate: 6 068 Kbps
Nominal bit rate: 9 000 Kbps
Width: 720 pixels
Height: 576 pixels
Display aspect ratio: 2.35:1
Frame rate: 25.000 fps
Standard: PAL
Color space: YUV
Chroma subsampling: 4:2:0
Bit depth: 8 bits
Scan type: Interlaced
Scan order: Top Field First
Bits/(Pixel*Frame): 0.585
Stream size: 874 MiB (85%)

Audio #1
ID: 128 (0x80)
Format: AC-3
Format/Info: Audio Coding 3
Mode extension: CM (complete main)
Duration: 20mn 8s
Bit rate mode: Constant
Bit rate: 448 Kbps
Channel(s): 6 channels
Channel positions: Front: L C R, Side: L R, LFE
Sampling rate: 48.0 KHz
Bit depth: 16 bits
Video delay: -552ms
Stream size: 64.6 MiB (6%)

Audio #2
ID: 129 (0x81)
Format: AC-3
Format/Info: Audio Coding 3
Mode extension: CM (complete main)
Duration: 20mn 8s
Bit rate mode: Constant
Bit rate: 448 Kbps
Channel(s): 6 channels
Channel positions: Front: L C R, Side: L R, LFE
Sampling rate: 48.0 KHz
Bit depth: 16 bits
Video delay: -552ms
Stream size: 64.6 MiB (6%)

Text
ID: 32 (0x20)
Format: RLE
Format/Info: Run-length encoding
Duration: 20mn 5s
Video delay: 1s 360ms



















Поделиться:




реклама партнёра


Вернуться к началу
 Профиль Отправить личное сообщение  
 
   Похожие торренты   Автор   Торрент   Размер 
В этой теме нет новых непрочитанных сообщений. Человек с поезда / L'homme du train [философская драма, 2002] BDRemux, Mvo

salma3

8 | 3

18.16 ГБ

В этой теме нет новых непрочитанных сообщений. Первый человек / Le premier homme (Джанни Амелио) [2011, драма, DVDRip] Sub

Nickolas3435

24 | 2

1.4 ГБ

В этой теме нет новых непрочитанных сообщений. Человек с поезда / L'homme du train [философская драма, 2002] BDRip 720p, Mvo

salma3

65 | 11

4.82 ГБ

В этой теме нет новых непрочитанных сообщений. Человек-оркестр / L'Homme Orchestre [мюзикл, комедия, 1970] BDRip 720p, Dub+Dvo+Sub

salma3

77 | 20

3.1 ГБ

В этой теме нет новых непрочитанных сообщений. Белая собака / White Dog [триллер, драма, 1982] HDRip, Avo

salma3

17 | 2

1.45 ГБ

В этой теме нет новых непрочитанных сообщений. Бродячая собака / Deulgae (Чжун-хун Ким / Jung-hoon Kim) [2013г., Южная Корея, драма, WEB-DLRip] VO

Alfredovich

6 | 2

747.94 МБ

В этой теме нет новых непрочитанных сообщений. Веселый господин / Один хороший человек / The Merry Gentleman [Драма, 2008] BDRip 720p, Dvo+Sub

salma3

57 | 3

3.77 ГБ


Начать новую тему Ответить на тему  [ 1 сообщение ] 




Для Мосгорсуда, Роскомнадзора и рекламодателей:: mosgorsud-torrent[собачка]yandex.ru