Торрент файл
скачать торрент магнет ссылка Добавлен: 07 янв 2012, 19:02
Размер: 4.91 ГБ
Сидеров: 0
Личеров: 3
Автор

СообщениеДобавлено: 07 янв 2012, 19:02 

Не в сети
Супермодератор
Аватара пользователя
Дата регистрации:
11 апр 2010, 18:10
Спасибо: 5801 / 7
Сообщения: 56779
Тайная жизнь / Anonymes


Перевод: Профессиональный (многолосый, закадровый)
Субтитры: Отсутсвуют
Формат: DVD9, DVD Video, MPEG2, AC3
Страна: Франция, Швейцария, Тунис
Режиссер: Раджа Амари
Жанр: драма
Продолжительность: 01:28:16
Год выпуска: 2009

В ролях: Хафсия Херци, Сондос Белхассен, Вассила Дари, Рим Эль Бенна, Даффер Лабидин

Описание: Мать с двумя дочерьми многие годы скрывается в заброшенном доме. Никто не знает об их существовании. Однажды в этот дом возвращается сын бывших владельцев со своей невестой. И тогда тайная жизнь трех женщин оказывается под угрозой…

Рейтинг на IMDB: 7.8/10
Зрителям достигшим 16 лет!
Рейтинг КиноПоиск.RU: 6.500

Видео: 720x576 (PAL 16:9), 25,000 fps, MPEG-2 Video ~ 9 000 kbps avg
Аудио: Русский: 48 kHz, AC3 Dolby Digital, 6 ch, ~ 448 kbps avg [Профессиональный (многоголосый, закадровый)]

Доп.информация: [Лицензионное издание « Вольга»]
Meню озвученное, частично анимированное, на русском языке, с навигацией по эпизодам. Все кнопки функциональны.


General
Complete name: D:\DVD\Тайная жизнь\VIDEO_TS\VTS_03_2.VOB
Format: MPEG-PS
File size: 1 024 MiB
Duration: 18mn 21s
Overall bit rate: 7 799 Kbps

Video
ID: 224 (0xE0)
Format: MPEG Video
Format version: Version 2
Format profile: Main@Main
Format settings, BVOP: Yes
Format settings, Matrix: Default
Format settings, GOP: M=3, N=12
Duration: 18mn 21s
Bit rate mode: Variable
Bit rate: 7 196 Kbps
Nominal bit rate: 9 000 Kbps
Width: 720 pixels
Height: 576 pixels
Display aspect ratio: 16:9
Frame rate: 25.000 fps
Standard: PAL
Color space: YUV
Chroma subsampling: 4:2:0
Bit depth: 8 bits
Scan type: Interlaced
Scan order: Top Field First
Bits/(Pixel*Frame): 0.694
Stream size: 944 MiB (92%)

Audio
ID: 128 (0x80)
Format: AC-3
Format/Info: Audio Coding 3
Mode extension: CM (complete main)
Duration: 18mn 21s
Bit rate mode: Constant
Bit rate: 448 Kbps
Channel(s): 6 channels
Channel positions: Front: L C R, Side: L R, LFE
Sampling rate: 48.0 KHz
Bit depth: 16 bits
Video delay: -640ms
Stream size: 58.8 MiB (6%)















Поделиться:




реклама партнёра


Вернуться к началу
 Профиль Отправить личное сообщение  
 
   Похожие торренты   Автор   Торрент   Размер 
В этой теме нет новых непрочитанных сообщений. Тайная жизнь Мерилин Монро / The Secret Life of Marilyn Monroe [S01x01-05 из 05] (Лори Коллье) [2015, Биография, драма, HDTVRip | Lord32x Studio]

Dracon

298 | 173

1.23 ГБ

В этой теме нет новых непрочитанных сообщений. Тайная жизнь Мерилин Монро / The Secret Life of Marilyn Monroe [S01x01-02 из 05] (Лори Коллье) [2015, Биография, драма, HDTVRip | Lord32x Studio]

Nickolas3435

145 | 24

503.02 МБ

В этой теме нет новых непрочитанных сообщений. Тайная жизнь Мерилин Монро / The Secret Life of Marilyn Monroe [S01x01-02 из 05] (Лори Коллье) [2015, Биография, драма, HDTVRip 720р | Lord32x Studio]

Nickolas3435

64 | 12

1.9 ГБ

В этой теме нет новых непрочитанных сообщений. Тайная жизнь Мерилин Монро / The Secret Life of Marilyn Monroe [S01x01-05 из 05] (Лори Коллье) [2015, Биография, драма, HDTVRip 720р | Lord32x Studio]

Dracon

193 | 148

4.8 ГБ

В этой теме нет новых непрочитанных сообщений. Тайная жизнь домашних животных (Мультфильм, комедия, семейный, 2016) HDRip от Generalfilm | КПК | Чистый звук

marya111

0 | 0

359.82 МБ

В этой теме нет новых непрочитанных сообщений. Тайная жизнь домашних животных / The Secret Life of Pets [мультфильм, комедия, семейный, 2016] BDRip-AVC, Dub [iTunes]

salma3

131 | 31

1.42 ГБ

В этой теме нет новых непрочитанных сообщений. Тайная жизнь домашних животных / The Secret Life of Pets [мультфильм, комедия, семейный, 2016] BDRip, Dub [iTunes]

salma3

192 | 22

1.41 ГБ


Начать новую тему Ответить на тему  [ 1 сообщение ] 




Для Мосгорсуда, Роскомнадзора и рекламодателей:: mosgorsud-torrent[собачка]yandex.ru