Торрент файл
скачать торрент магнет ссылка Добавлен: 07 янв 2012, 19:02
Размер: 6.68 ГБ
Сидеров: 0
Личеров: 4
Автор

СообщениеДобавлено: 07 янв 2012, 19:02 

Не в сети
Супермодератор
Аватара пользователя
Дата регистрации:
11 апр 2010, 18:10
Спасибо: 5801 / 7
Сообщения: 56779
Чрево / Womb


Перевод: Профессиональный (многоголосый, закадровый)
Субтитры: Украинские
Формат: DVD9, DVD Video, MPEG2, AC3
Страна: Германия, Франция, Венгрия
Режиссер: Бенедек Флигауф
Жанр: драма
Продолжительность:01:47:18
Год выпуска: 2010

В ролях: Эва Грин, Мэтт Смит, Лесли Мэнвиль, Питер Уайт, Иштван Ленарт, Наталья Тена, Аманда Лоуренс

Описание: Недалекое будущее. Семилетние Ребекка и Томас живут в небольшом прибрежном городке и дружат с самого детства. После окончания школы семнадцатилетняя Ребекка возвращается в родной городок и у нее завязывается бурный роман с подросшим Томасом.

Спустя несколько месяцев Томас погибает в нелепой автокатастрофе. Отчаявшаяся Ребекка не находит себе места до тех пор, пока ей не приходит в голову безумная идея. В недалеком будущем вполне обыденным явлением стало клонирование людей, пусть общество и не до конца принимает это научное изобретение. Ребекка решает дать новую жизнь своему потерянному возлюбленному…

В доме на берегу моря повзрослевшая Ребекка растит обаятельного сына Томаса, который уверен, что его отец погиб в автокатастрофе. Ребекка никогда не говорит вслух о клонировании. Пока не появляется кое-кто из прошлой жизни и тайное не становится явным. ..


Рейтинг на IMDB: 6.4/10
Рейтинг КиноПоиск.RU: 6.317

Видео: 720x576 (PAL 16:9), 25,000 fps, MPEG-2 Video ~ 8 000 kbps avg
Аудио #1: Русский: 48 kHz, AC3 Dolby Digital, 6 ch, ~ 384 kbps avg [Профессиональный (многоголосый, закадровый)]
Аудио #2: Русский: 48 kHz, AC3 Dolby Digital, 2 ch, ~ 192 kbps avg [Профессиональный (многоголосый, закадровый)]

Доп.информация: Meню озвученное, частично анимированное, на русском языке, с навигацией по эпизодам. Все кнопки функциональны.

Слоган: Возможна ли вечная любовь в фантастическом мире?


General
Complete name: D:\DVD\Чрево\VIDEO_TS\VTS_02_4.VOB
Format: MPEG-PS
File size: 1 024 MiB
Duration: 18mn 27s
Overall bit rate: 7 756 Kbps

Video
ID: 224 (0xE0)
Format: MPEG Video
Format version: Version 2
Format profile: Main@Main
Format settings, BVOP: Yes
Format settings, Matrix: Default
Format settings, GOP: M=3, N=15
Duration: 18mn 27s
Bit rate mode: Variable
Bit rate: 7 026 Kbps
Nominal bit rate: 8 000 Kbps
Width: 720 pixels
Height: 576 pixels
Display aspect ratio: 16:9
Frame rate: 25.000 fps
Standard: PAL
Color space: YUV
Chroma subsampling: 4:2:0
Bit depth: 8 bits
Scan type: Interlaced
Scan order: Top Field First
Bits/(Pixel*Frame): 0.678
Stream size: 927 MiB (91%)

Audio #1
ID: 128 (0x80)
Format: AC-3
Format/Info: Audio Coding 3
Mode extension: CM (complete main)
Duration: 18mn 27s
Bit rate mode: Constant
Bit rate: 384 Kbps
Channel(s): 6 channels
Channel positions: Front: L C R, Side: L R, LFE
Sampling rate: 48.0 KHz
Bit depth: 16 bits
Video delay: -608ms
Stream size: 50.7 MiB (5%)

Audio #2
ID: 129 (0x81)
Format: AC-3
Format/Info: Audio Coding 3
Mode extension: CM (complete main)
Duration: 18mn 27s
Bit rate mode: Constant
Bit rate: 192 Kbps
Channel(s): 2 channels
Channel positions: Front: L R
Sampling rate: 48.0 KHz
Bit depth: 16 bits
Video delay: -480ms
Stream size: 25.3 MiB (2%)

Menu



















Поделиться:




реклама партнёра


Вернуться к началу
 Профиль Отправить личное сообщение  
 
   Похожие торренты   Автор   Торрент   Размер 
В этой теме нет новых непрочитанных сообщений. Призраки чрева / Ngok toi / Womb Ghosts [Ужасы, 2010] Blu-ray Remux 1080p, Avo+Sub

salma3

14 | 8

13.48 ГБ

В этой теме нет новых непрочитанных сообщений. Remassacre - Dead Since The Womb [2009, Metalcore, 2-step, Hardcore, MP3]

PriZraK

0 | 1

60.93 МБ

В этой теме нет новых непрочитанных сообщений. Dead Meadow - Warble Womb [2013, Psychedelic Stoner Rock, MP3]

PriZraK

0 | 2

165.65 МБ

В этой теме нет новых непрочитанных сообщений. Necrophobic - Womb of Lilithu [2013,Black Metal,Death Metal,MP3]

PriZraK

0 | 1

158.3 МБ

В этой теме нет новых непрочитанных сообщений. The Howling Void - The Womb Beyond The World [2012, Symphonic Metal, Funeral Doom Metal, MP3]

PriZraK

0 | 1

158.4 МБ

В этой теме нет новых непрочитанных сообщений. Дубровский [Драма, 2014] DVD9 [Лицензия]

Dracon

15 | 7

7.46 ГБ

В этой теме нет новых непрочитанных сообщений. Затухающий огонек / Le feu follet [драма, 1963] DVD9, Mvo+Sub

salma3

8 | 3

5.81 ГБ


Начать новую тему Ответить на тему  [ 1 сообщение ] 




Для Мосгорсуда, Роскомнадзора и рекламодателей:: mosgorsud-torrent[собачка]yandex.ru