Торрент файл
скачать торрент магнет ссылка Добавлен: 07 янв 2012, 19:02
Размер: 5.86 ГБ
Сидеров: 2
Личеров: 4
Автор

СообщениеДобавлено: 07 янв 2012, 19:02 

Не в сети
Супермодератор
Аватара пользователя
Дата регистрации:
11 апр 2010, 18:10
Спасибо: 5960 / 7
Сообщения: 56765
Рамона и Бизус / Ramona and Beezus


Перевод: Профессиональный (многоголосый, закадровый)
Субтитры: Русские, английские, арабские, польские, украинские
Формат: DVD9, DVD Video, MPEG2, AC3
Страна: США
Режиссер: Элизабет Аллен
Жанр: фэнтези, комедия, приключения, семейный
Продолжительность: 01:39:16
Год выпуска: 2010

В ролях: Джои Кинг, Селена Гомес, Джон Корбетт, Бриджет Мойнэхэн, Джиннифер Гудвин, Джош Дюамель, Джейсон Спивак, Сьерра МакКормик, Сандра О, Кэтрин Зэнна

Описание: В центре сюжета находятся две сестры — предприимчивая Рамона и ее старшая сестра Беатрис по прозвищу Бизус.

Рейтинг на IMDB: 6.5/10
Рейтинг МРАА:G
Рейтинг КиноПоиск.RU: 7.045

Видео: 720x576 (PAL 16:9), 25,000 fps, MPEG-2 Video ~ 9800 kbps avg
Аудио #1: Английский: 48 kHz, AC3 Dolby Digital, 6 ch, ~ 448 kbps avg [Оригинал]
Аудио #2: Русский: 48 kHz, AC3 Dolby Digital, 6 ch, ~ 384 kbps avg [Профессиональный (многоголосый, закадровый)]
Аудио #2: Польский: 48 kHz, AC3 Dolby Digital, 6 ch, ~ 384 kbps avg

Доп.информация: Meню озвученное, статичное, на русском языке, с навигацией по эпизодам. Все кнопки функциональны.

Слоган: «Младшая сестра Имеет большое значение.»


General
Complete name: D:\DVD\Рамона и Бизус\VIDEO_TS\VTS_02_3.VOB
Format: MPEG-PS
File size: 1 024 MiB
Duration: 20mn 51s
Overall bit rate: 6 863 Kbps

Video
ID: 224 (0xE0)
Format: MPEG Video
Format version: Version 2
Format profile: Main@Main
Format settings, BVOP: Yes
Format settings, Matrix: Default
Duration: 20mn 51s
Bit rate mode: Variable
Bit rate: 5 511 Kbps
Nominal bit rate: 9 800 Kbps
Width: 720 pixels
Height: 576 pixels
Display aspect ratio: 16:9
Frame rate: 25.000 fps
Standard: Component
Color space: YUV
Chroma subsampling: 4:2:0
Bit depth: 8 bits
Scan type: Progressive
Scan order: Top Field First
Bits/(Pixel*Frame): 0.532
Stream size: 822 MiB (80%)

Audio #1
ID: 128 (0x80)
Format: AC-3
Format/Info: Audio Coding 3
Mode extension: CM (complete main)
Duration: 20mn 51s
Bit rate mode: Constant
Bit rate: 448 Kbps
Channel(s): 6 channels
Channel positions: Front: L C R, Side: L R, LFE
Sampling rate: 48.0 KHz
Bit depth: 16 bits
Video delay: -400ms
Stream size: 66.8 MiB (7%)

Audio #2
ID: 129 (0x81)
Format: AC-3
Format/Info: Audio Coding 3
Mode extension: CM (complete main)
Duration: 20mn 51s
Bit rate mode: Constant
Bit rate: 384 Kbps
Channel(s): 6 channels
Channel positions: Front: L C R, Side: L R, LFE
Sampling rate: 48.0 KHz
Bit depth: 16 bits
Video delay: -400ms
Stream size: 57.3 MiB (6%)

Audio #3
ID: 130 (0x82)
Format: AC-3
Format/Info: Audio Coding 3
Mode extension: CM (complete main)
Duration: 20mn 51s
Bit rate mode: Constant
Bit rate: 384 Kbps
Channel(s): 6 channels
Channel positions: Front: L C R, Side: L R, LFE
Sampling rate: 48.0 KHz
Bit depth: 16 bits
Video delay: -400ms
Stream size: 57.3 MiB (6%)

Text #1
ID: 32 (0x20)
Format: RLE
Format/Info: Run-length encoding

Text #2
ID: 33 (0x21)
Format: RLE
Format/Info: Run-length encoding

Text #3
ID: 34 (0x22)
Format: RLE
Format/Info: Run-length encoding

Text #4
ID: 35 (0x23)
Format: RLE
Format/Info: Run-length encoding

Text #5
ID: 36 (0x24)
Format: RLE
Format/Info: Run-length encoding





















Поделиться:




реклама партнёра


Вернуться к началу
 Профиль Отправить личное сообщение  
 
   Похожие торренты   Автор   Торрент   Размер 
В этой теме нет новых непрочитанных сообщений. Рамона и Бизус / Ramona and Beezus [фэнтези, комедия, приключения, 2010] BDRip 720p, Mvo=Sub

salma3

62 | 9

4 ГБ

В этой теме нет новых непрочитанных сообщений. Рамона и Бизус / Ramona and Beezus [фэнтези, комедия, приключения, 2010] BDRip 1080p, Mvo=Sub

salma3

43 | 5

11.93 ГБ

В этой теме нет новых непрочитанных сообщений. Осторожнее с желаниями / Careful What You Wish For (Элизабет Аллен) [2015, триллер, HDRip] avo

Nickolas3435

2336 | 102

1.45 ГБ

В этой теме нет новых непрочитанных сообщений. Осторожнее с желаниями / Careful What You Wish For (Элизабет Аллен) [Триллер, 2015] HDRip, dvo

Dracon

1 | 0

1.46 ГБ

В этой теме нет новых непрочитанных сообщений. Осторожнее с желаниями / Careful What You Wish For (Элизабет Аллен) [2015, Триллер, BDRip 1080p] avo

Nickolas3435

346 | 29

4.87 ГБ

В этой теме нет новых непрочитанных сообщений. Дневники Вампира / The Vampire Diaries [06x01-11] (Маркос Сига, Элизабет Аллен)[2014, Ужасы, фэнтези, драма, мелодрама, HDTVRip | ColdFilm]

Nickolas3435

107 | 330

4.67 ГБ

В этой теме нет новых непрочитанных сообщений. Дневники Вампира / The Vampire Diaries [06x01-12] (Маркос Сига, Элизабет Аллен) [2014, Ужасы, фэнтези, драма, мелодрама, HDTVRip | ColdFilm]

Nickolas3435

51 | 206

5.06 ГБ


Начать новую тему Ответить на тему  [ 1 сообщение ] 




Для Мосгорсуда, Роскомнадзора и рекламодателей:: mosgorsud-torrent[собачка]yandex.ru