Торрент файл
скачать торрент магнет ссылка Добавлен: 07 янв 2012, 19:01
Размер: 6.8 ГБ
Сидеров: 3
Личеров: 10
Автор

СообщениеДобавлено: 07 янв 2012, 19:01 

Не в сети
Супермодератор
Аватара пользователя
Дата регистрации:
11 апр 2010, 18:10
Спасибо: 5801 / 7
Сообщения: 56779
Поворот не туда 3 / Wrong Turn 3: Left for Dead


Перевод: Профессиональный (многоголосый, закадровый)
Субтитры: Русские, английские, латышские, литовские, эстонские, болгарские, Сербохорватский, чешские, венгерские, исландские, польские, португальские, румынский, словенские, украинские
Формат: DVD9, DVD Video, MPEG2, AC3
Страна: США, Германия
Режиссер: Роб Шмидт
Жанр: ужасы, триллер
Продолжительность: 01:28:17
Год выпуска: 2003

В ролях: Том Фредерик, Джанет Монтгомери, Джил Колирин, Кристиан Райан Контрерарс, Джэйк Каррен, Том МакКэй, Чуки Венис, Тэмер Хассан, Джек Гордон, Луиз Клифф

Описание: Затерявшись в лесах Западной Вирджинии в результате рокового стечения обстоятельств, группа молодых людей пытается добраться до ближайшего телефона. Но вместо телефона им суждено найти дом в горах, увешанный страшным оружием и отвратительными трофеями…

Кто, или что живет в этом доме? Молодые люди начинают понимать, что все их злоключения — способ загнать дичь в ловушку, где они — это дичь, а зловещие охотники — обитатели дома…


Рейтинг на IMDB: 4.4/10
Рейтинг КиноПоиск.RU: 4.537

Видео: 720x576 (PAL 16:9), 25,000 fps, MPEG-2 Video ~ 9800 kbps avg
Аудио #1: Русский: 48 kHz, AC3 Dolby Digital, 6 ch, ~ 448 kbps avg [Профессиональный (многоголосый, закадровый)]
Аудио #2: Английский: 48 kHz, AC3 Dolby Digital, 6 ch, ~ 384 kbps avg [Оригинал]
Аудио #3: Чешский: 48 kHz, AC3 Dolby Digital, 6 ch, ~ 384 kbps avg
Аудио #4: Польский: 48 kHz, AC3 Dolby Digital, 6 ch, ~ 384 kbps avg

Доп.информация: [Лицензионное издание «20th Century Fox»]
Meню озвученное, статичное, на английском языке, с навигацией по эпизодам. Все кнопки функциональны.

Слоган: «Вы не увидите то, что вас убьет...»


General
Complete name: D:\DVD\Поворот не туда 3\VIDEO_TS\VTS_02_2.VOB
Format: MPEG-PS
File size: 1 024 MiB
Duration: 16mn 28s
Overall bit rate: 8 686 Kbps

Video
ID: 224 (0xE0)
Format: MPEG Video
Format version: Version 2
Format profile: Main@Main
Format settings, BVOP: Yes
Format settings, Matrix: Default
Duration: 16mn 28s
Bit rate mode: Variable
Bit rate: 6 913 Kbps
Nominal bit rate: 9 800 Kbps
Width: 720 pixels
Height: 576 pixels
Display aspect ratio: 16:9
Frame rate: 25.000 fps
Standard: Component
Color space: YUV
Chroma subsampling: 4:2:0
Bit depth: 8 bits
Scan type: Progressive
Scan order: Top Field First
Bits/(Pixel*Frame): 0.667
Stream size: 815 MiB (80%)

Audio #1
ID: 128 (0x80)
Format: AC-3
Format/Info: Audio Coding 3
Mode extension: CM (complete main)
Duration: 16mn 28s
Bit rate mode: Constant
Bit rate: 448 Kbps
Channel(s): 6 channels
Channel positions: Front: L C R, Side: L R, LFE
Sampling rate: 48.0 KHz
Bit depth: 16 bits
Video delay: -384ms
Stream size: 52.8 MiB (5%)

Audio #2
ID: 129 (0x81)
Format: AC-3
Format/Info: Audio Coding 3
Mode extension: CM (complete main)
Duration: 16mn 28s
Bit rate mode: Constant
Bit rate: 384 Kbps
Channel(s): 6 channels
Channel positions: Front: L C R, Side: L R, LFE
Sampling rate: 48.0 KHz
Bit depth: 16 bits
Video delay: -384ms
Stream size: 45.3 MiB (4%)

Audio #3
ID: 130 (0x82)
Format: AC-3
Format/Info: Audio Coding 3
Mode extension: CM (complete main)
Duration: 16mn 28s
Bit rate mode: Constant
Bit rate: 384 Kbps
Channel(s): 6 channels
Channel positions: Front: L C R, Side: L R, LFE
Sampling rate: 48.0 KHz
Bit depth: 16 bits
Video delay: -384ms
Stream size: 45.3 MiB (4%)

Audio #4
ID: 131 (0x83)
Format: AC-3
Format/Info: Audio Coding 3
Mode extension: CM (complete main)
Duration: 16mn 28s
Bit rate mode: Constant
Bit rate: 384 Kbps
Channel(s): 6 channels
Channel positions: Front: L C R, Side: L R, LFE
Sampling rate: 48.0 KHz
Bit depth: 16 bits
Video delay: -384ms
Stream size: 45.3 MiB (4%)

Text #1
ID: 32 (0x20)
Format: RLE
Format/Info: Run-length encoding
Duration: 16mn 26s
Video delay: 2s 360ms

Text #2
ID: 33 (0x21)
Format: RLE
Format/Info: Run-length encoding
Duration: 16mn 26s
Video delay: 2s 360ms

Text #3
ID: 34 (0x22)
Format: RLE
Format/Info: Run-length encoding
Duration: 16mn 25s
Video delay: 2s 360ms

Text #4
ID: 35 (0x23)
Format: RLE
Format/Info: Run-length encoding
Duration: 16mn 26s
Video delay: 2s 360ms

Text #5
ID: 36 (0x24)
Format: RLE
Format/Info: Run-length encoding
Duration: 16mn 26s
Video delay: 2s 360ms

Text #6
ID: 38 (0x26)
Format: RLE
Format/Info: Run-length encoding
Duration: 16mn 26s
Video delay: 2s 360ms

Text #7
ID: 39 (0x27)
Format: RLE
Format/Info: Run-length encoding
Duration: 16mn 26s
Video delay: 2s 360ms

Text #8
ID: 41 (0x29)
Format: RLE
Format/Info: Run-length encoding
Duration: 16mn 26s
Video delay: 2s 360ms

Text #9
ID: 42 (0x2A)
Format: RLE
Format/Info: Run-length encoding
Duration: 16mn 26s
Video delay: 2s 360ms

Text #10
ID: 43 (0x2B)
Format: RLE
Format/Info: Run-length encoding
Duration: 16mn 26s
Video delay: 2s 360ms

Text #11
ID: 44 (0x2C)
Format: RLE
Format/Info: Run-length encoding
Duration: 16mn 26s
Video delay: 2s 360ms

Text #12
ID: 46 (0x2E)
Format: RLE
Format/Info: Run-length encoding
Duration: 16mn 26s
Video delay: 2s 360ms

Text #13
ID: 47 (0x2F)
Format: RLE
Format/Info: Run-length encoding
Duration: 16mn 26s
Video delay: 2s 360ms

Text #14
ID: 37 (0x25)
Format: RLE
Format/Info: Run-length encoding

Text #15
ID: 40 (0x2
Format: RLE
Format/Info: Run-length encoding



















Поделиться:




реклама партнёра


Вернуться к началу
 Профиль Отправить личное сообщение  
 
   Похожие торренты   Автор   Торрент   Размер 
В этой теме нет новых непрочитанных сообщений. Поворот не туда 6: Последний курорт / Wrong Turn 6: Last Resort [ужасы, 2014] BDRemux, Mvo+Sub

salma3

24 | 7

23.4 ГБ

В этой теме нет новых непрочитанных сообщений. Поворот не туда 6: Последний курорт / Wrong Turn 6: Last Resort [ужасы, 2014] HDRip, Mvo

Dracon

4874 | 151

1.37 ГБ

В этой теме нет новых непрочитанных сообщений. Поворот не туда 6: Последний курорт / Wrong Turn 6: Last Resort [UNRATED] [ужасы, 2014] BDRip 720p, Mvo

Dracon

4 | 2

4.5 ГБ

В этой теме нет новых непрочитанных сообщений. Поворот не туда 6: Последний курорт / Wrong Turn 6: Last Resort [UNRATED] [ужасы, 2014] BDRip 720p, Mvo+Sub

Dracon

150 | 5

8.03 ГБ

В этой теме нет новых непрочитанных сообщений. Поворот не туда 6: Последний курорт / Wrong Turn 6: Last Resort (Валерий Милев) [2014, ужасы, HDRip | Unrated | Лицензия] mvo

Nickolas3435

1633 | 62

1.46 ГБ

В этой теме нет новых непрочитанных сообщений. Поворот винта / The Turn of the Screw [триллер, 1992] DVDRip, Avo

salma3

47 | 8

1.46 ГБ

В этой теме нет новых непрочитанных сообщений. Поворот / Turn [S01] [Драма, 2014] WEB-DL 1080p [BaibaKo]

Dracon

17 | 9

17.77 ГБ


Начать новую тему Ответить на тему  [ 1 сообщение ] 




Для Мосгорсуда, Роскомнадзора и рекламодателей:: mosgorsud-torrent[собачка]yandex.ru