Торрент файл
скачать торрент магнет ссылка Добавлен: 07 янв 2012, 19:01
Размер: 6.08 ГБ
Сидеров: 0
Личеров: 6
Автор

СообщениеДобавлено: 07 янв 2012, 19:01 

Не в сети
Супермодератор
Аватара пользователя
Дата регистрации:
11 апр 2010, 18:10
Спасибо: 5801 / 7
Сообщения: 56779
Быстрее пули / Faster


Перевод: Профессиональный (полное дублирование)
Субтитры: Английские, хинди, арабские, эстонские, иврит, литовские
Формат: DVD9, DVD Video, MPEG2, AC3
Страна: США
Режиссер: Джордж Тиллман мл.
Жанр: боевик, триллер, драма, криминал
Продолжительность: 01:33:58
Год выпуска: 2010

В ролях: Дуэйн Джонсон, Билли Боб Торнтон, Оливер Джексон-Коэн, Карла Гуджино, Мэгги Грэйс, Мун Бладгуд, Адевале Акиннуойе-Агбадже, Том Беренджер, Маурицио Лопез, Джим Гейнс

Описание: Бывший преступник мстит за убийство родного брата во время ограбления десять лет назад, когда кто-то подставил нечистых на руку родственников.

Рейтинг на IMDB: 6.6/10
Рейтинг МРАА: R
Рейтинг КиноПоиск.RU: 6.355

Видео: 720x576 (PAL 16:9), 25,000 fps, MPEG-2 Video ~ 9800 kbps avg
Аудио #1: Английский: 48 kHz, AC3 Dolby Digital, 6 ch, ~ 448 kbps avg [Оригинал]
Аудио #2: Хинди: 48 kHz, AC3 Dolby Digital, 6 ch, ~ 448 kbps avg
Аудио #3: Русский: 48 kHz, AC3 Dolby Digital, 6 ch, ~ 448 kbps avg [Профессиональный (полное дублирование)]
Аудио #4: Тамильский: 48 kHz, AC3 Dolby Digital, 6 ch, ~ 448 kbps avg
Аудио #5: Украинский: 48 kHz, AC3 Dolby Digital, 6 ch, ~ 448 kbps avg [Профессиональный (полное дублирование)]

Доп.информация: [Лицензионное издание «Columbia/Sony»]
Meню озвученное, частично анимированное, на русском языке, с навигацией по эпизодам. Все кнопки функциональны.

Слоган: «Правосудие не для всех»

Релиз группы :


General
Complete name: D:\DVD\Быстрее пули\VIDEO_TS\VTS_01_3.VOB
Format: MPEG-PS
File size: 1 024 MiB
Duration: 18mn 39s
Overall bit rate: 7 673 Kbps

Video
ID: 224 (0xE0)
Format: MPEG Video
Format version: Version 2
Format profile: Main@Main
Format settings, BVOP: Yes
Format settings, Matrix: Default
Duration: 18mn 39s
Bit rate mode: Variable
Bit rate: 5 280 Kbps
Nominal bit rate: 9 800 Kbps
Width: 720 pixels
Height: 576 pixels
Display aspect ratio: 16:9
Frame rate: 25.000 fps
Standard: PAL
Color space: YUV
Chroma subsampling: 4:2:0
Bit depth: 8 bits
Scan type: Progressive
Scan order: Top Field First
Bits/(Pixel*Frame): 0.509
Stream size: 704 MiB (69%)

Audio #1
ID: 128 (0x80)
Format: AC-3
Format/Info: Audio Coding 3
Mode extension: CM (complete main)
Duration: 18mn 39s
Bit rate mode: Constant
Bit rate: 448 Kbps
Channel(s): 6 channels
Channel positions: Front: L C R, Side: L R, LFE
Sampling rate: 48.0 KHz
Bit depth: 16 bits
Video delay: -736ms
Stream size: 59.8 MiB (6%)

Audio #2
ID: 129 (0x81)
Format: AC-3
Format/Info: Audio Coding 3
Mode extension: CM (complete main)
Duration: 18mn 39s
Bit rate mode: Constant
Bit rate: 448 Kbps
Channel(s): 6 channels
Channel positions: Front: L C R, Side: L R, LFE
Sampling rate: 48.0 KHz
Bit depth: 16 bits
Video delay: -736ms
Stream size: 59.8 MiB (6%)

Audio #3
ID: 130 (0x82)
Format: AC-3
Format/Info: Audio Coding 3
Mode extension: CM (complete main)
Duration: 18mn 39s
Bit rate mode: Constant
Bit rate: 448 Kbps
Channel(s): 6 channels
Channel positions: Front: L C R, Side: L R, LFE
Sampling rate: 48.0 KHz
Bit depth: 16 bits
Video delay: -736ms
Stream size: 59.8 MiB (6%)

Audio #4
ID: 131 (0x83)
Format: AC-3
Format/Info: Audio Coding 3
Mode extension: CM (complete main)
Duration: 18mn 39s
Bit rate mode: Constant
Bit rate: 448 Kbps
Channel(s): 6 channels
Channel positions: Front: L C R, Side: L R, LFE
Sampling rate: 48.0 KHz
Bit depth: 16 bits
Video delay: -736ms
Stream size: 59.8 MiB (6%)

Audio #5
ID: 132 (0x84)
Format: AC-3
Format/Info: Audio Coding 3
Mode extension: CM (complete main)
Duration: 18mn 39s
Bit rate mode: Constant
Bit rate: 448 Kbps
Channel(s): 6 channels
Channel positions: Front: L C R, Side: L R, LFE
Sampling rate: 48.0 KHz
Bit depth: 16 bits
Video delay: -736ms
Stream size: 59.8 MiB (6%)

Text #1
ID: 32 (0x20)
Format: RLE
Format/Info: Run-length encoding
Duration: 18mn 38s
Video delay: 320ms

Text #2
ID: 33 (0x21)
Format: RLE
Format/Info: Run-length encoding
Duration: 18mn 38s
Video delay: 320ms

Text #3
ID: 35 (0x23)
Format: RLE
Format/Info: Run-length encoding
Duration: 18mn 37s
Video delay: 400ms

Text #4
ID: 36 (0x24)
Format: RLE
Format/Info: Run-length encoding
Duration: 18mn 38s
Video delay: 320ms

Text #5
ID: 37 (0x25)
Format: RLE
Format/Info: Run-length encoding
Duration: 18mn 38s
Video delay: 320ms

Text #6
ID: 38 (0x26)
Format: RLE
Format/Info: Run-length encoding
Duration: 18mn 37s
Video delay: 320ms





















Поделиться:




реклама партнёра


Вернуться к началу
 Профиль Отправить личное сообщение  
 
   Похожие торренты   Автор   Торрент   Размер 
В этой теме нет новых непрочитанных сообщений. Быстрее пули / Faster [боевик, триллер, драма, криминал, 2010 ] HDRip, Avo [Гаврилов]

salma3

2 | 3

1.45 ГБ

В этой теме нет новых непрочитанных сообщений. Дальняя дорога / The Longest Ride (Джордж Тиллман мл.) [Драма, мелодрама, 2015] HDRip, Dub [iTunes]

Dracon

2133 | 45

1.46 ГБ

В этой теме нет новых непрочитанных сообщений. Дальняя дорога / The Longest Ride (Джордж Тиллман мл.) [Драма, мелодрама, 2015] HDRip, Dub [iTunes]

Dracon

171 | 2

2.18 ГБ

В этой теме нет новых непрочитанных сообщений. Дальняя дорога / The Longest Ride (Джордж Тиллман мл.) [Драма, мелодрама, 2015] BDRip 720p, Dub [iTunes]

Dracon

216 | 3

7.13 ГБ

В этой теме нет новых непрочитанных сообщений. Дальняя дорога / The Longest Ride (Джордж Тиллман мл.) [Драма, мелодрама, 2015] BDRip 720p, Dub+Sub [iTunes]

Dracon

4 | 0

4.21 ГБ

В этой теме нет новых непрочитанных сообщений. Дальняя дорога / The Longest Ride (Джордж Тиллман мл.) [Драма, мелодрама, 2015] BDRip 1080p, Dub [iTunes]

Dracon

98 | 8

13.84 ГБ

В этой теме нет новых непрочитанных сообщений. Власть в ночном городе / Power [s02] (Джон Дэвид Коулз, Энтони Хемингуэй, Джордж Тиллман мл.) [Драма, 2015] WEB-DL 1080p [Amedia]

Dracon

42 | 27

23.38 ГБ


Начать новую тему Ответить на тему  [ 1 сообщение ] 




Для Мосгорсуда, Роскомнадзора и рекламодателей:: mosgorsud-torrent[собачка]yandex.ru