Торрент файл
скачать торрент магнет ссылка Добавлен: 07 янв 2012, 19:01
Размер: 7.11 ГБ
Сидеров: 0
Личеров: 4
Автор

СообщениеДобавлено: 07 янв 2012, 19:01 

Не в сети
Супермодератор
Аватара пользователя
Дата регистрации:
11 апр 2010, 18:10
Спасибо: 5801 / 7
Сообщения: 56779
Эрин Брокович / Erin Brockovich


Перевод: Профессиональный (полное дублирование)
Субтитры: Английские, итальянские, испанские, португальские, русские, немецкие, польские
Формат: DVD9, DVD Video, MPEG2, AC3
Страна: США
Режиссер: Стивен Содерберг
Жанр: драма, мелодрама, биография
Продолжительность: 02:05:55
Год выпуска: 2000

В ролях: Джулия Робертс, Альберт Финни, Дэвид Брисбин, Доун Дидавик, Валенте Родригес, Кончата Феррелл, Джордж Роки Салливан, Пэт Скиппер, Джек Гилл, Ирен Ольга Лопез

Описание: История об Эрин Брокович, одинокой женщине с тремя детьми, которую жизнь не часто баловала светлыми днями. Для таких, как она, нет карьерных перспектив, есть только скромная работа в маленькой юридической фирме. Но для уверенной в себе красотки, не стесняющейся в выражениях, достаточно одного ничтожного шанса, чтобы кардинально изменить свою судьбу. Красота и обаяние помогли ей добиться невиданного успеха, но теперь Эрин потребуется невероятная решительность, чтобы довести дело века до суда.

Рейтинг на IMDB: 7.2/10
Рейтинг МРАА: R
Рейтинг КиноПоиск.RU: 7.711

Видео: 720x576 (PAL 16:9), 25,000 fps, MPEG-2 Video ~ 9800 kbps avg
Аудио #1: Английский: 48 kHz, AC3 Dolby Digital, 6 ch, ~ 448 kbps avg [Оригинал]
Аудио #2: Итальянский: 48 kHz, AC3 Dolby Digital, 6 ch, ~ 448 kbps avg
Аудио #3: Испанский: 48 kHz, AC3 Dolby Digital, 6 ch, ~ 448 kbps avg
Аудио #4: Русский: 48 kHz, AC3 Dolby Digital, 6 ch, ~ 448 kbps avg [Профессиональный (полное дублирование)]
Аудио #5: Русский: 48 kHz, AC3 Dolby Digital, 6 ch, ~ 448 kbps avg [Профессиональный (многоголосый, закадровый)]

Доп.информация: [Лицензионное издание «Columbia/Sony»]
Meню озвученное, частично анимированное, на английском языке, с навигацией по эпизодам. Все кнопки функциональны.

Слоган: «Она принесла небольшой город к его ногам и огромную корпорацию к его коленям.»


General
Complete name: D:\DVD\Эрин Брокович\VIDEO_TS\VTS_02_4.VOB
Format: MPEG-PS
File size: 1 024 MiB
Duration: 23mn 5s
Overall bit rate: 6 200 Kbps

Video
ID: 224 (0xE0)
Format: MPEG Video
Format version: Version 2
Format profile: Main@Main
Format settings, BVOP: Yes
Format settings, Matrix: Default
Format settings, GOP: M=3, N=12
Duration: 23mn 5s
Bit rate mode: Variable
Bit rate: 3 836 Kbps
Nominal bit rate: 9 800 Kbps
Width: 720 pixels
Height: 576 pixels
Display aspect ratio: 16:9
Frame rate: 25.000 fps
Standard: PAL
Color space: YUV
Chroma subsampling: 4:2:0
Bit depth: 8 bits
Scan type: Interlaced
Scan order: Top Field First
Bits/(Pixel*Frame): 0.370
Stream size: 633 MiB (62%)

Audio #1
ID: 128 (0x80)
Format: AC-3
Format/Info: Audio Coding 3
Mode extension: CM (complete main)
Duration: 23mn 5s
Bit rate mode: Constant
Bit rate: 448 Kbps
Channel(s): 6 channels
Channel positions: Front: L C R, Side: L R, LFE
Sampling rate: 48.0 KHz
Bit depth: 16 bits
Video delay: -440ms
Stream size: 74.0 MiB (7%)

Audio #2
ID: 129 (0x81)
Format: AC-3
Format/Info: Audio Coding 3
Mode extension: CM (complete main)
Duration: 23mn 5s
Bit rate mode: Constant
Bit rate: 448 Kbps
Channel(s): 6 channels
Channel positions: Front: L C R, Side: L R, LFE
Sampling rate: 48.0 KHz
Bit depth: 16 bits
Video delay: -440ms
Stream size: 74.0 MiB (7%)

Audio #3
ID: 130 (0x82)
Format: AC-3
Format/Info: Audio Coding 3
Mode extension: CM (complete main)
Duration: 23mn 5s
Bit rate mode: Constant
Bit rate: 448 Kbps
Channel(s): 6 channels
Channel positions: Front: L C R, Side: L R, LFE
Sampling rate: 48.0 KHz
Bit depth: 16 bits
Video delay: -440ms
Stream size: 74.0 MiB (7%)

Audio #4
ID: 131 (0x83)
Format: AC-3
Format/Info: Audio Coding 3
Mode extension: CM (complete main)
Duration: 23mn 5s
Bit rate mode: Constant
Bit rate: 448 Kbps
Channel(s): 6 channels
Channel positions: Front: L C R, Side: L R, LFE
Sampling rate: 48.0 KHz
Bit depth: 16 bits
Video delay: -440ms
Stream size: 74.0 MiB (7%)

Audio #5
ID: 132 (0x84)
Format: AC-3
Format/Info: Audio Coding 3
Mode extension: CM (complete main)
Duration: 23mn 5s
Bit rate mode: Constant
Bit rate: 448 Kbps
Channel(s): 6 channels
Channel positions: Front: L C R, Side: L R, LFE
Sampling rate: 48.0 KHz
Bit depth: 16 bits
Video delay: -440ms
Stream size: 74.0 MiB (7%)

Text #1
ID: 32 (0x20)
Format: RLE
Format/Info: Run-length encoding
Duration: 23mn 1s
Video delay: 1s 800ms

Text #2
ID: 33 (0x21)
Format: RLE
Format/Info: Run-length encoding
Duration: 23mn 1s
Video delay: 1s 800ms

Text #3
ID: 34 (0x22)
Format: RLE
Format/Info: Run-length encoding
Duration: 23mn 1s
Video delay: 1s 800ms

Text #4
ID: 35 (0x23)
Format: RLE
Format/Info: Run-length encoding
Duration: 23mn 1s
Video delay: 1s 800ms

Text #5
ID: 36 (0x24)
Format: RLE
Format/Info: Run-length encoding
Duration: 23mn 1s
Video delay: 1s 800ms

Text #6
ID: 37 (0x25)
Format: RLE
Format/Info: Run-length encoding
Duration: 23mn 3s
Video delay: -400ms

Text #7
ID: 38 (0x26)
Format: RLE
Format/Info: Run-length encoding
Duration: 23mn 4s
Video delay: -320ms





















Поделиться:




реклама партнёра


Вернуться к началу
 Профиль Отправить личное сообщение  
 
   Похожие торренты   Автор   Торрент   Размер 
В этой теме нет новых непрочитанных сообщений. Эрин Брокович / Erin Brockovich [Драма, мелодрама, биография, реальные события, 2000] BDRip 1080p, Dub+Sub

salma3

25 | 4

9.36 ГБ

В этой теме нет новых непрочитанных сообщений. Заклинательница зверей Эрин / Kemono no Souja Erin / The Beast Player Erin [01-50 из 50] (Хамана Такаюки) [2009, фэнтези, повседневность, драма, HDTVRip 720p]

Nickolas3435

13 | 12

17.25 ГБ

В этой теме нет новых непрочитанных сообщений. Tami Erin: The Sex Tape / Тами Эрин: Домашнее видео (Zero Tolerance) [2013 г., Reality, Celebrity Sex Tapes, Straight, DVDRip 404p] Split Scenes

Mitya495

779 | 45

936.97 МБ

В этой теме нет новых непрочитанных сообщений. Больница Никербокер / The Knick [02x01-06 из 10] (Стивен Содерберг) [2015, драма, HDTVRip | Amedia]

Dracon

5 | 20

4.39 ГБ

В этой теме нет новых непрочитанных сообщений. Больница Никербокер / The Knick [02х01-07 из 10] (Стивен Содерберг) [2015, Драма, HDTVRip | NewStudio]

Nickolas3435

7 | 11

4.71 ГБ

В этой теме нет новых непрочитанных сообщений. Больница Никербокер / The Knick [02х01-09 из 10] (Стивен Содерберг) [2015, Драма, HDTVRip | NewStudio]

Dracon

12 | 5

6.04 ГБ

В этой теме нет новых непрочитанных сообщений. Больница Никербокер / The Knick [02x01-05 из 10] (Стивен Содерберг) [2015, драма, HDTVRip | BaibaKo]

Dracon

5 | 2

3.7 ГБ


Начать новую тему Ответить на тему  [ 1 сообщение ] 




Для Мосгорсуда, Роскомнадзора и рекламодателей:: mosgorsud-torrent[собачка]yandex.ru