Торрент файл
скачать торрент магнет ссылка Добавлен: 07 янв 2012, 19:00
Размер: 7.58 ГБ
Сидеров: 2
Личеров: 4
Автор

СообщениеДобавлено: 07 янв 2012, 19:00 

Не в сети
Супермодератор
Аватара пользователя
Дата регистрации:
11 апр 2010, 18:10
Спасибо: 5803 / 7
Сообщения: 56779
Лучше не бывает / As Good as It Gets


Перевод: Профессиональный (многоголосый, закадровый)
Субтитры: Русские, английские
Формат: DVD9, DVD Video, MPEG2, AC3, DTS
Страна:США
Режиссер: Джеймс Л. Брукс
Жанр: драма, мелодрама, комедия
Продолжительность: 02:18:33
Год выпуска: 1997

В ролях: Джек Николсон, Хелен Хант, Грег Киннер, Кьюба Гудинг мл., Скит Ульрих, Ширли Найт, Ярдли Смит, Люпе Онтиверос, Джилл Дог, Билли Дог, Биби Остервальд, Росс Блекнер, Бернадетт Балагтас, Джаффе Коэн, Лори Килпэтрик, Элис Вон, Брайан Дойл-Мюррэй, Кристи Зиа, Патриция Чайлдресс, Ребека Джонсон, Мисси Пайл, Лесли Стефансон

Описание: Мелвин Адал, психически неуравновешенный эксцентричный писатель, ненавидит буквально всех вокруг. Из-за своего странного поведения он одинок и часто попадает в комичные ситуации. Но неожиданно его уединение нарушается.

Мелвину приходится ухаживать за соседской собакой, и незаметно для себя он учится у нее доброте и преданности. За стеной собственного равнодушия ему открывается прекрасный мир человеческих чувств…


Рейтинг на IMDB: 7.8/10
Рейтинг МРАА: PG-13
Рейтинг КиноПоиск.RU: 8.016

Видео: 720x480 (PAL 16:9), 23.976 fps, MPEG-2 Video ~ 9800 kbps avg
Аудио #1: Русский: 48 kHz, AC3 Dolby Digital, 6 ch, ~ 384 kbps avg [Профессиональный (многоголосый, закадровый)]
Аудио #2: Английский: 48 kHz, DTS Dolby Digital, 6 ch, ~ 755 kbps avg [Оригинал]
Аудио #3: Русский: 48 kHz, DTS Dolby Digital, 6 ch, ~ 755 kbps avg [Профессиональный (многоголосый, закадровый)]

Слоган: «Комедия от сердца, которое идет до горла.»

Доп.информация: Meню озвученное, статичное, на русском языке, с навигацией по эпизодам. Все кнопки функциональны.


General
Complete name: D:\DVD\Лучше не бывает\VIDEO_TS\VTS_03_3.VOB
Format: MPEG-PS
File size: 1 024 MiB
Duration: 17mn 53s
Overall bit rate: 8 003 Kbps

Video
ID: 224 (0xE0)
Format: MPEG Video
Format version: Version 2
Format profile: Main@Main
Format settings, BVOP: Yes
Format settings, Matrix: Default
Duration: 17mn 53s
Bit rate mode: Variable
Bit rate: 5 951 Kbps
Nominal bit rate: 9 800 Kbps
Width: 720 pixels
Height: 480 pixels
Display aspect ratio: 16:9
Frame rate: 23.976 fps
Standard: NTSC
Color space: YUV
Chroma subsampling: 4:2:0
Bit depth: 8 bits
Scan type: Progressive
Scan order: 2:3 Pulldown
Bits/(Pixel*Frame): 0.718
Stream size: 761 MiB (74%)

Audio #1
ID: 130 (0x82)
Format: AC-3
Format/Info: Audio Coding 3
Mode extension: CM (complete main)
Duration: 17mn 53s
Bit rate mode: Constant
Bit rate: 384 Kbps
Channel(s): 6 channels
Channel positions: Front: L C R, Side: L R, LFE
Sampling rate: 48.0 KHz
Bit depth: 16 bits
Video delay: -290ms
Stream size: 49.1 MiB (5%)

Audio #2
ID: 136 (0x88)
Format: DTS
Format/Info: Digital Theater Systems
Duration: 17mn 53s
Bit rate mode: Constant
Bit rate: 755 Kbps
Channel(s): 6 channels
Channel positions: Front: L C R, Side: L R, LFE
Sampling rate: 48.0 KHz
Bit depth: 24 bits
Video delay: -344ms
Stream size: 96.5 MiB (9%)

Audio #3
ID: 137 (0x89)
Format: DTS
Format/Info: Digital Theater Systems
Duration: 17mn 53s
Bit rate mode: Constant
Bit rate: 755 Kbps
Channel(s): 6 channels
Channel positions: Front: L C R, Side: L R, LFE
Sampling rate: 48.0 KHz
Bit depth: 16 bits
Video delay: -344ms
Stream size: 96.5 MiB (9%)

Text #1
ID: 32 (0x20)
Format: RLE
Format/Info: Run-length encoding
Duration: 17mn 51s
Video delay: 1s 518ms

Text #2
ID: 33 (0x21)
Format: RLE
Format/Info: Run-length encoding
Duration: 17mn 51s
Video delay: 1s 251ms

Text #3
ID: 224 (0xE0)-DVD-2
Format: EIA-608
Muxing mode: DVD-Video
Muxing mode, more info: Muxed in Video #1
Stream size: 0.00 Byte (0%)



















Поделиться:




реклама партнёра


Вернуться к началу
 Профиль Отправить личное сообщение  
 
   Похожие торренты   Автор   Торрент   Размер 
В этой теме нет новых непрочитанных сообщений. Лучше не бывает / As Good as It Gets [комедия, мелодрама, драма, 1997] BDRip 1080p, Dub+3Mvo+2Avo+Sub

salma3

7 | 4

15.91 ГБ

В этой теме нет новых непрочитанных сообщений. Лучше не бывает / As Good as It Gets [комедия, мелодрама, 1997] BDRip 720p, Dub

salma3

35 | 6

6 ГБ

В этой теме нет новых непрочитанных сообщений. Лучше не бывает [01-12 из 12] (Евгений Семенов) [Комедия, 2015] WEB-DL 720p

Dracon

21 | 12

8.41 ГБ

В этой теме нет новых непрочитанных сообщений. Лучше не бывает [01-12 из 12] (Евгений Семенов) [Комедия, 2015] SATRip

Dracon

78 | 25

8.18 ГБ

В этой теме нет новых непрочитанных сообщений. Лучше не бывает [01-12 из 12] (Евгений Семенов) [Комедия, 2015] HDTV 1080i

Dracon

77 | 51

39.78 ГБ

В этой теме нет новых непрочитанных сообщений. Лучше, чем шоколад / Better Than Chocolate [драма, мелодрама, комедия, 1999] DVDRip, Avo

salma3

22 | 2

1.45 ГБ

В этой теме нет новых непрочитанных сообщений. Лучше свинки нет скотинки / Tout est bon dans le cochon (Давид Дельрье / David Delrieux) [2011г., Франция, драма, комедия, мелодрама, DVB] sub

Alfredovich

7 | 2

2.38 ГБ


Начать новую тему Ответить на тему  [ 1 сообщение ] 




Для Мосгорсуда, Роскомнадзора и рекламодателей:: mosgorsud-torrent[собачка]yandex.ru