Торрент файл
скачать торрент магнет ссылка Добавлен: 07 янв 2012, 19:00
Размер: 6.9 ГБ
Сидеров: 0
Личеров: 4
Автор

СообщениеДобавлено: 07 янв 2012, 19:00 

Не в сети
Супермодератор
Аватара пользователя
Дата регистрации:
11 апр 2010, 18:10
Спасибо: 5962 / 7
Сообщения: 56765
600 кг золота / 600 kilos d'or pur


Перевод: Профессиональный(многоголосый, закдровый)
Субтитры: Русские
Формат: DVD9, DVD Video, MPEG2, AC3
Страна: Франция
Режиссер: Эрик Беснард
Жанр: драма, криминал, приключения
Продолжительность:01:35:25
Год выпуска: 2010

В ролях: Кловис Корнийяк, Одри Дана, Патрик Шенэ, Клаудио Сантамария, Бруно Соло, Эрик Эбони, Жерар Клейн, Мехди Неббу, Юбер Сен-Макари, Жан-Пьер Мартен

Описание: Несколько отчаянных искателей приключений объединяется, чтобы купить золотодобывающую шахту в Гайане. Когда рискованная сделка срывается, героям приходится спешно скрываться на вертолете, который терпит крушение в непролазных джунглях. С собой у путешественников 600 килограммов золота. Вскоре эта ноша становится слишком тяжелой…

Вскоре инстинкт выживания берет верх над жаждой богатства, но никто не хочет оставаться в дураках. И вот уже золотая лихорадка превращает бывших товарищей в смертных врагов….


Рейтинг на IMDB: 4.5/10
Рейтинг КиноПоиск.RU: 4.325

Видео: 720x576 (PAL 16:9), 25,000 fps, MPEG-2 Video ~ 8500 kbps avg
Аудио #1: Русский: 48 kHz, AC3 Dolby Digital, 6 ch, ~ 384 kbps avg [Профессиональный(многоголосый, закдровый)]
Аудио #2: Французский: 48 kHz, AC3 Dolby Digital, 6 ch, ~ 384 kbps avg [Оригинал]
Аудио #3: Русский: 48 kHz, AC3 Dolby Digital, 2 ch, ~ 192 kbps avg [Профессиональный(многоголосый, закдровый)]

Доп.информация: [Лицензионное издание «Кармен Видео»]
Meню озвученное, частично анимированное, на русском языке, с навигацией по эпизодам. Все кнопки функциональны.

Релиз группы :


General
Complete name: D:\DVD\600 кг золота\VIDEO_TS\VTS_01_4.VOB
Format: MPEG-PS
File size: 1 024 MiB
Duration: 16mn 27s
Overall bit rate: 8 698 Kbps

Video
ID: 224 (0xE0)
Format: MPEG Video
Format version: Version 2
Format profile: Main@Main
Format settings, BVOP: Yes
Format settings, Matrix: Default
Format settings, GOP: M=3, N=15
Duration: 16mn 27s
Bit rate mode: Variable
Bit rate: 7 565 Kbps
Nominal bit rate: 8 500 Kbps
Width: 720 pixels
Height: 576 pixels
Display aspect ratio: 16:9
Frame rate: 25.000 fps
Standard: PAL
Color space: YUV
Chroma subsampling: 4:2:0
Bit depth: 8 bits
Scan type: Interlaced
Scan order: Top Field First
Bits/(Pixel*Frame): 0.730
Stream size: 890 MiB (87%)

Audio #1
ID: 128 (0x80)
Format: AC-3
Format/Info: Audio Coding 3
Mode extension: CM (complete main)
Duration: 16mn 27s
Bit rate mode: Constant
Bit rate: 384 Kbps
Channel(s): 6 channels
Channel positions: Front: L C R, Side: L R, LFE
Sampling rate: 48.0 KHz
Bit depth: 16 bits
Video delay: -440ms
Stream size: 45.2 MiB (4%)

Audio #2
ID: 129 (0x81)
Format: AC-3
Format/Info: Audio Coding 3
Mode extension: CM (complete main)
Duration: 16mn 27s
Bit rate mode: Constant
Bit rate: 384 Kbps
Channel(s): 6 channels
Channel positions: Front: L C R, Side: L R, LFE
Sampling rate: 48.0 KHz
Bit depth: 16 bits
Video delay: -440ms
Stream size: 45.2 MiB (4%)

Audio #3
ID: 130 (0x82)
Format: AC-3
Format/Info: Audio Coding 3
Mode extension: CM (complete main)
Duration: 16mn 27s
Bit rate mode: Constant
Bit rate: 192 Kbps
Channel(s): 2 channels
Channel positions: Front: L R
Sampling rate: 48.0 KHz
Bit depth: 16 bits
Video delay: -408ms
Stream size: 22.6 MiB (2%)



















Поделиться:




реклама партнёра


Вернуться к началу
 Профиль Отправить личное сообщение  
 
   Похожие торренты   Автор   Торрент   Размер 
В этой теме нет новых непрочитанных сообщений. CSI: Киберпространство / CSI: Cyber [02x01-06 из 13] (Дермотт Даунс, Эрик Ла Салль, Джефф Т. Томас) [2015, драма, криминал, HDTVRip | HamsterStudio]

Dracon

155 | 109

3.43 ГБ

В этой теме нет новых непрочитанных сообщений. CSI: Киберпространство / CSI: Cyber [02x01-03 из 13] (Дермотт Даунс, Эрик Ла Салль, Джефф Т. Томас) [2015, драма, криминал, HDTVRip | HamsterStudio]

Nickolas3435

234 | 161

1.78 ГБ

В этой теме нет новых непрочитанных сообщений. CSI: Киберпространство / CSI: Cyber [01x01-05 из 13] (Дермотт Даунс, Эрик Ла Салль, Джефф Т. Томас)[2015, драма, криминал, WEB-DLRip | Hamster]

Nickolas3435

70 | 31

2.86 ГБ

В этой теме нет новых непрочитанных сообщений. CSI: Киберпространство / CSI: Cyber [02x01-04 из 13] (Дермотт Даунс, Эрик Ла Салль, Джефф Т. Томас) [2015, драма, криминал, HDTVRip | HamsterStudio]

Dracon

134 | 130

2.34 ГБ

В этой теме нет новых непрочитанных сообщений. CSI: Киберпространство / CSI: Cyber [01x01] (Дермотт Даунс, Эрик Ла Салль, Джефф Т. Томас) [2015, драма, криминал, HDTVRip 720p | Dexter]

Nickolas3435

16 | 2

1.5 ГБ

В этой теме нет новых непрочитанных сообщений. Пересекая черту / Crossing Lines [03x01-07 из 12] (Дэниэл Персивал, Эрик Валетт, Энди Уилсон) [2015, Боевик, драма, криминал, HDTVRip | Sony Turbo]

Dracon

126 | 35

3.14 ГБ

В этой теме нет новых непрочитанных сообщений. Воскрешение / Resurrection [ужасы, триллер, драма, криминал, детектив, 1999] DVD9, Dvo+Avo+Sub

salma3

16 | 3

5.34 ГБ


Начать новую тему Ответить на тему  [ 1 сообщение ] 




Для Мосгорсуда, Роскомнадзора и рекламодателей:: mosgorsud-torrent[собачка]yandex.ru