Торрент файл
скачать торрент магнет ссылка Добавлен: 07 янв 2012, 18:59
Размер: 6.31 ГБ
Сидеров: 4
Личеров: 4
Автор

СообщениеДобавлено: 07 янв 2012, 18:59 

Не в сети
Супермодератор
Аватара пользователя
Дата регистрации:
11 апр 2010, 18:10
Спасибо: 5799 / 7
Сообщения: 56779
Любовь-морковь 3


Перевод: Не требуется
Субтитры: Русские
Формат: DVD9, DVD Video, MPEG2, AC3
Страна: Россия
Режиссер: Сергей Гинзбург
Жанр: комедия
Продолжительность:01:33:41
Год выпуска: 2011

В ролях: Кристина Орбакайте, Гоша Куценко, Денис Парамонов, Алина Булынко, Лия Ахеджакова, Владимир Меньшов, Вячеслав Манучаров, Михаил Козаков, Андрей Ургант, Людмила Гаврилова

Описание: В семье Голубевых — опять стихийное бедствие. Без предупреждения к ним нагрянула теща — утонченная любительница музыки и поэзии. А за ней свекор — бравый полковник, простой как Устав Вооруженных сил. Хотя со времени свадьбы прошло почти пятнадцать лет, мама Марины по-прежнему недолюбливает Андрея, а отец Андрея даже не скрывает, что мечтал о другой невестке. А уж когда старики сталкиваются друг с другом — это гром и молния! И как всегда, в самый сложный момент на пороге появляется профессор Коган, специалист по решению семейных проблем.

Рейтинг на IMDB: 4.4/10
Рейтинг КиноПоиск.RU: 4.238

Видео: 720x576 (PAL 16:9), 25,000 fps, MPEG-2 Video ~ 8000 kbps avg
Аудио: Русский: 48 kHz, AC3 Dolby Digital, 6 ch, ~ 448 kbps avg

Доп.информация: [Лицензионное издание «Двадцатый Век Фокс СНГ»]
Meню озвученное, статичное, на русском языке, с навигацией по эпизодам. Все кнопки функциональны.

Слоган: «Они снова не в себе!»


General
Complete name: D:\DVD\Любовь-морковь 3\VIDEO_TS\VTS_04_3.VOB
Format: MPEG-PS
File size: 1 024 MiB
Duration: 18mn 58s
Overall bit rate: 7 546 Kbps

Video
ID: 224 (0xE0)
Format: MPEG Video
Format version: Version 2
Format profile: Main@Main
Format settings, BVOP: Yes
Format settings, Matrix: Default
Format settings, GOP: M=3, N=12
Duration: 18mn 58s
Bit rate mode: Variable
Bit rate: 6 947 Kbps
Nominal bit rate: 8 000 Kbps
Width: 720 pixels
Height: 576 pixels
Display aspect ratio: 16:9
Frame rate: 25.000 fps
Standard: PAL
Color space: YUV
Chroma subsampling: 4:2:0
Bit depth: 8 bits
Scan type: Interlaced
Scan order: Top Field First
Bits/(Pixel*Frame): 0.670
Stream size: 943 MiB (92%)

Audio
ID: 128 (0x80)
Format: AC-3
Format/Info: Audio Coding 3
Mode extension: CM (complete main)
Duration: 18mn 58s
Bit rate mode: Constant
Bit rate: 448 Kbps
Channel(s): 6 channels
Channel positions: Front: L C R, Side: L R, LFE
Sampling rate: 48.0 KHz
Bit depth: 16 bits
Video delay: -248ms
Stream size: 60.8 MiB (6%)

Text #1
ID: 32 (0x20)
Format: RLE
Format/Info: Run-length encoding
Duration: 18mn 57s
Video delay: 560ms



















Поделиться:




реклама партнёра


Вернуться к началу
 Профиль Отправить личное сообщение  
 
   Похожие торренты   Автор   Торрент   Размер 
В этой теме нет новых непрочитанных сообщений. Волчье солнце [01-12 из 12] (Сергей Гинзбург) [2014, Приключенческая драма, SATRip]

Nickolas3435

1001 | 137

7.04 ГБ

В этой теме нет новых непрочитанных сообщений. Все в порядке, это любовь / Просто это любовь / Ничего страшного, это любовь / It's Okay It's Love [01-16 из 16](Ким Кю Тхэ)[2014, мелодрама, романтика, комедия, психология, HDTVRip 720р]

Nickolas3435

9 | 5

18.51 ГБ

В этой теме нет новых непрочитанных сообщений. Любовь по рецепту и без / Любовь, секс и химия / Better Living Through Chemistry [комедия, драма, 2014] DVD5, Dub [Лицензия]

Dracon

26 | 2

4.17 ГБ

В этой теме нет новых непрочитанных сообщений. Любовь по рецепту и без / Любовь, секс и химия / Better Living Through Chemistry [комедия, драма, 2014] HDRip, dub [Чистый звук]

Dracon

114 | 3

1.45 ГБ

В этой теме нет новых непрочитанных сообщений. Храни её, любовь (Сергей Винокуров) [Мелодрама, криминал, 2014] HDTVRip

Dracon

524 | 21

1.46 ГБ

В этой теме нет новых непрочитанных сообщений. Любовь на четырех колесах (Сергей Влади) [мелодрама, 2015] SATRip

Dracon

209 | 4

1.32 ГБ

В этой теме нет новых непрочитанных сообщений. Метаморфозис (Сергей Тарамаев, Любовь Львова) [драма, 2015] WEB-DLRip [iTunes]

Dracon

698 | 63

1.44 ГБ


Начать новую тему Ответить на тему  [ 1 сообщение ] 




Для Мосгорсуда, Роскомнадзора и рекламодателей:: mosgorsud-torrent[собачка]yandex.ru