Торрент файл
скачать торрент магнет ссылка Добавлен: 07 янв 2012, 18:59
Размер: 7.14 ГБ
Сидеров: 0
Личеров: 6
Автор

СообщениеДобавлено: 07 янв 2012, 18:59 

Не в сети
Супермодератор
Аватара пользователя
Дата регистрации:
11 апр 2010, 18:10
Спасибо: 5801 / 7
Сообщения: 56779
Чемпион / Secretariat


Перевод: Профессиональный (многоголосый, закадровый)
Субтитры: Русские, английские, украинские, французские, голландские, болгарские, латышские, литовские, арабские, румынские, хорватские, словенские, эстонские
Формат: DVD9, DVD Video, MPEG2, AC3
Страна: США
Режиссер: Рэндалл Уоллес
Жанр: драма, семейный, история, спорт
Продолжительность:01:57:56
Год выпуска: 2010

В ролях: Невероятная история о лошади по кличке Секретариат, которая в 1973 году смогла сделать то, что никому не удавалось на протяжении 25 лет — выиграть подряд три престижнейших скачки из серии «Тройная Корона».

Описание:

Рейтинг на IMDB: 7.1/10
Рейтинг МРАА: PG
Рейтинг КиноПоиск.RU: 7.705

Видео: 720x576 (PAL 16:9), 25,000 fps, MPEG-2 Video ~ 9800 kbps avg
Аудио #1: Английский: 48 kHz, AC3 Dolby Digital, 6 ch, ~ 384 kbps avg [Оригинал]
Аудио #2: Французский: 48 kHz, AC3 Dolby Digital, 6 ch, ~ 384 kbps avg
Аудио #3: Русский: 48 kHz, AC3 Dolby Digital, 6 ch, ~ 384 kbps avg [Профессиональный (многоголосый, закадровый)]

Доп.информация: [Лицензионное издание «ВидеоСервис»]
Meню озвученное, частично анимированное, на русском языке, с навигацией по эпизодам. Все кнопки функциональны.

Слоган: «Невозможная Правдивая история»


General
Complete name: D:\DVD\Чемпион\VIDEO_TS\VTS_01_3.VOB
Format: MPEG-PS
File size: 1 024 MiB
Duration: 24mn 40s
Overall bit rate: 5 801 Kbps

Video
ID: 224 (0xE0)
Format: MPEG Video
Format version: Version 2
Format profile: Main@Main
Format settings, BVOP: Yes
Format settings, Matrix: Default
Duration: 24mn 40s
Bit rate mode: Variable
Bit rate: 4 533 Kbps
Nominal bit rate: 9 800 Kbps
Width: 720 pixels
Height: 576 pixels
Display aspect ratio: 16:9
Frame rate: 25.000 fps
Standard: PAL
Color space: YUV
Chroma subsampling: 4:2:0
Bit depth: 8 bits
Scan type: Progressive
Scan order: Top Field First
Bits/(Pixel*Frame): 0.437
Stream size: 800 MiB (78%)

Audio #1
ID: 128 (0x80)
Format: AC-3
Format/Info: Audio Coding 3
Mode extension: CM (complete main)
Duration: 24mn 40s
Bit rate mode: Constant
Bit rate: 384 Kbps
Channel(s): 6 channels
Channel positions: Front: L C R, Side: L R, LFE
Sampling rate: 48.0 KHz
Bit depth: 16 bits
Video delay: -656ms
Stream size: 67.8 MiB (7%)

Audio #2
ID: 129 (0x81)
Format: AC-3
Format/Info: Audio Coding 3
Mode extension: CM (complete main)
Duration: 24mn 40s
Bit rate mode: Constant
Bit rate: 384 Kbps
Channel(s): 6 channels
Channel positions: Front: L C R, Side: L R, LFE
Sampling rate: 48.0 KHz
Bit depth: 16 bits
Video delay: -656ms
Stream size: 67.8 MiB (7%)

Audio #3
ID: 130 (0x82)
Format: AC-3
Format/Info: Audio Coding 3
Mode extension: CM (complete main)
Duration: 24mn 40s
Bit rate mode: Constant
Bit rate: 384 Kbps
Channel(s): 6 channels
Channel positions: Front: L C R, Side: L R, LFE
Sampling rate: 48.0 KHz
Bit depth: 16 bits
Video delay: -656ms
Stream size: 67.8 MiB (7%)

Text #1
ID: 33 (0x21)
Format: RLE
Format/Info: Run-length encoding
Duration: 24mn 37s
Video delay: 320ms

Text #2
ID: 49 (0x31)
Format: RLE
Format/Info: Run-length encoding
Duration: 24mn 37s
Video delay: 320ms

Text #3
ID: 32 (0x20)
Format: RLE
Format/Info: Run-length encoding

Text #4
ID: 34 (0x22)
Format: RLE
Format/Info: Run-length encoding

Text #5
ID: 35 (0x23)
Format: RLE
Format/Info: Run-length encoding

Text #6
ID: 36 (0x24)
Format: RLE
Format/Info: Run-length encoding

Text #7
ID: 37 (0x25)
Format: RLE
Format/Info: Run-length encoding

Text #8
ID: 38 (0x26)
Format: RLE
Format/Info: Run-length encoding

Text #9
ID: 39 (0x27)
Format: RLE
Format/Info: Run-length encoding

Text #10
ID: 40 (0x2
Format: RLE
Format/Info: Run-length encoding

Text #11
ID: 41 (0x29)
Format: RLE
Format/Info: Run-length encoding

Text #12
ID: 42 (0x2A)
Format: RLE
Format/Info: Run-length encoding

Text #13
ID: 43 (0x2B)
Format: RLE
Format/Info: Run-length encoding





















Поделиться:




реклама партнёра


Вернуться к началу
 Профиль Отправить личное сообщение  
 
   Похожие торренты   Автор   Торрент   Размер 
В этой теме нет новых непрочитанных сообщений. Чемпион / Pentathlon [Боевик, драма, спорт, 1994] BDRip-AVC, Mvo

salma3

14 | 0

2.66 ГБ

В этой теме нет новых непрочитанных сообщений. Мираж на льду / Miracle [драма, семейный, история, спорт, 2004] BDRip 720p, Dvo

salma3

16 | 3

5.55 ГБ

В этой теме нет новых непрочитанных сообщений. Чемпионы [Драма, спорт, 2014] DVD9 [Лицензия]

Dracon

32 | 2

5.04 ГБ

В этой теме нет новых непрочитанных сообщений. Фехтовальщик / Miekkailija [Драма, история, спорт, 2015] HDRip, Dvo [ETV+]

salma3

68 | 3

1.46 ГБ

В этой теме нет новых непрочитанных сообщений. Фаворит / Seabiscuit [драма, история, спорт, 2003] BDRemux 1080p, Dub

salma3

16 | 9

29.96 ГБ

В этой теме нет новых непрочитанных сообщений. Фаворит / Seabiscuit [Драма, история, спорт, 2003] BDRip 1080p, Dub

salma3

5 | 0

15.42 ГБ

В этой теме нет новых непрочитанных сообщений. Чемпион / Пятиборье / Пентатлон / Pentathlon [боевик, триллер, драма, 1994] BDRip 720p, Mvo

salma3

4 | 4

3.53 ГБ


Начать новую тему Ответить на тему  [ 1 сообщение ] 




Для Мосгорсуда, Роскомнадзора и рекламодателей:: mosgorsud-torrent[собачка]yandex.ru