Торрент файл
скачать торрент магнет ссылка Добавлен: 07 янв 2012, 18:58
Размер: 6.71 ГБ
Сидеров: 2
Личеров: 4
Автор

СообщениеДобавлено: 07 янв 2012, 18:58 

Не в сети
Супермодератор
Аватара пользователя
Дата регистрации:
11 апр 2010, 18:10
Спасибо: 5802 / 7
Сообщения: 56779
Путь воина / The Warrior's Way


Перевод: Профессиональный (полное дублирование)
Субтитры: Русские
Формат: DVD9, DVD Video, MPEG2, AC3
Страна: США, Корея Южная, Новая Зеландия
Режиссер: Снгму Ли
Жанр: фэнтези, боевик, вестерн
Продолжительность: 01:36:05
Год выпуска: 210

В ролях: Чан Дон Ган, Кейт Босворт, Джеффри Раш, Дэнни Хьюстон, Мэтт Джилландерс, Тони Кокс, Ланг Ти, Эналин Радд, Маркус Хэмилтон, Род Люисих

Описание: Великий воин Янг — живая легенда, рожденная на поле боя. Он был так силен, что ни одна армия не могла его победить.

Однажды, уничтожая врагов своего клана, самурай отказался убить маленькую девочку, за что его ждет смертный приговор. С младенцем на руках он бежит в Новый Свет, в Америку и находит убежище в захолустном городке, жители которого живут в постоянном страхе перед бандой безжалостного Полковника… Но и здесь прошлое преследует Янга. Он снова должен обнажить свой меч…


Рейтинг на IMDB: 6.2/10
Рейтинг МРАА: R
Рейтинг КиноПоиск.RU: 5.803

Видео: 720x576 (PAL 16:9), 25,000 fps, MPEG-2 Video ~ 8000 kbps avg
Аудио #1: Русский: 48 kHz, AC3 Dolby Digital, 6 ch, ~ 384 kbps avg [Профессиональный (полное дублирование)]
Аудио #2: Русский: 48 kHz, AC3 Dolby Digital, 2 ch, ~ 192 kbps avg [Профессиональный (полное дублирование)]
Аудио #3: Английский: 48 kHz, AC3 Dolby Digital, 6 ch, ~ 384 kbps avg [Оригинал]

Доп.информация: [Лицензионное издание «Парадиз Видео»]
Meню озвученное, частично анимированное, на русском языке, с навигацией по эпизодам. Все кнопки функциональны.


General
Complete name: D:\DVD\Путь воина\VIDEO_TS\VTS_01_4.VOB
Format: MPEG-PS
File size: 1 024 MiB
Duration: 15mn 42s
Overall bit rate: 9 112 Kbps

Video
ID: 224 (0xE0)
Format: MPEG Video
Format version: Version 2
Format profile: Main@Main
Format settings, BVOP: Yes
Format settings, Matrix: Default
Format settings, GOP: M=3, N=15
Duration: 15mn 42s
Bit rate mode: Constant
Bit rate: 8 000 Kbps
Width: 720 pixels
Height: 576 pixels
Display aspect ratio: 16:9
Frame rate: 25.000 fps
Standard: PAL
Color space: YUV
Chroma subsampling: 4:2:0
Bit depth: 8 bits
Scan type: Interlaced
Scan order: Top Field First
Bits/(Pixel*Frame): 0.772
Stream size: 895 MiB (87%)

Audio #1
ID: 128 (0x80)
Format: AC-3
Format/Info: Audio Coding 3
Mode extension: CM (complete main)
Duration: 15mn 42s
Bit rate mode: Constant
Bit rate: 384 Kbps
Channel(s): 6 channels
Channel positions: Front: L C R, Side: L R, LFE
Sampling rate: 48.0 KHz
Bit depth: 16 bits
Video delay: -784ms
Stream size: 43.2 MiB (4%)

Audio #2
ID: 129 (0x81)
Format: AC-3
Format/Info: Audio Coding 3
Mode extension: CM (complete main)
Duration: 15mn 42s
Bit rate mode: Constant
Bit rate: 192 Kbps
Channel(s): 2 channels
Channel positions: Front: L R
Sampling rate: 48.0 KHz
Bit depth: 16 bits
Video delay: -688ms
Stream size: 21.6 MiB (2%)

Audio #3
ID: 130 (0x82)
Format: AC-3
Format/Info: Audio Coding 3
Mode extension: CM (complete main)
Duration: 15mn 42s
Bit rate mode: Constant
Bit rate: 384 Kbps
Channel(s): 6 channels
Channel positions: Front: L C R, Side: L R, LFE
Sampling rate: 48.0 KHz
Bit depth: 16 bits
Video delay: -784ms
Stream size
















Поделиться:




реклама партнёра


Вернуться к началу
 Профиль Отправить личное сообщение  
 
   Похожие торренты   Автор   Торрент   Размер 
В этой теме нет новых непрочитанных сообщений. Битва воина / Battle Warrior / Nuk soo dane song kram [ужасы, боевик, приключения, 1996] DVDRip, Avo

salma3

56 | 7

1.46 ГБ

В этой теме нет новых непрочитанных сообщений. Воин и колдунья / The Warrior and the Sorceress [фэнтези, боевик, приключения, 1984] DVDRip, Avo

salma3

44 | 5

1.44 ГБ

В этой теме нет новых непрочитанных сообщений. Савва. Сердце воина (Максим Фадеев) [мультфильм, приключения, фэнтези, 2015] WEB-DL 1080p

Dracon

4703 | 342

3.2 ГБ

В этой теме нет новых непрочитанных сообщений. Савва. Сердце воина (Максим Фадеев) [мультфильм, приключения, фэнтези, 2015] WEB-DLRip

Dracon

21897 | 1834

1.37 ГБ

В этой теме нет новых непрочитанных сообщений. Золотое кимоно воина 2 / Il ragazzo dal kimono d'oro 2 [Боевик, приключения, 1988] DVDRip, Avo

salma3

185 | 16

1.38 ГБ

В этой теме нет новых непрочитанных сообщений. Золотое кимоно воина / Il ragazzo dal kimono d'oro [Боевик, приключения, 1987] DVDRip, Avo

salma3

226 | 18

1.38 ГБ

В этой теме нет новых непрочитанных сообщений. Логово дракона: История воина / Dragon Nest: Warriors' Dawn (Юуефенг Сонг) [2014, фэнтези, приключения, семейный, анимэ, WEBRip 720p] dvo

Nickolas3435

1092 | 20

1.8 ГБ


Начать новую тему Ответить на тему  [ 1 сообщение ] 




Для Мосгорсуда, Роскомнадзора и рекламодателей:: mosgorsud-torrent[собачка]yandex.ru