Торрент файл
скачать торрент магнет ссылка Добавлен: 07 янв 2012, 18:58
Размер: 7.34 ГБ
Сидеров: 0
Личеров: 7
Автор

СообщениеДобавлено: 07 янв 2012, 18:58 

Не в сети
Супермодератор
Аватара пользователя
Дата регистрации:
11 апр 2010, 18:10
Спасибо: 5801 / 7
Сообщения: 56779
Психоаналитик / Shrink


Перевод: Профессиональный (многоголосый, закадровый)
Субтитры: Русские
Формат: DVD9, DVD Video, MPEG2, AC3, DTS
Страна: США
Режиссер: Джонас Пейт
Жанр: драма
Продолжительность:01:44:34
Год выпуска: 2009

В ролях: Кевин Спейси, Марк Веббер, Кеке Палмер, Саффрон Берроуз, Джек Хьюстон, Пелл Джеймс, Лаура Рэмси, Даллас Робертс, Роберт Лоджа, Гор Видал, Робин Уильямс

Описание: В центре сюжета — голливудский психоаналитик и заядлый курильщик марихуаны, находящийся во власти личной трагедии, с отсутствием веры в способность помочь своим пациентам. Тем не менее он вынужден принимать бесконечно страдающих знаменитостей…

Рейтинг на IMDB: 6.7/10
Рейтинг МРАА: R
Рейтинг КиноПоиск.RU: 6.855

Видео: 720x480 (NTSC 16:9), 23.976 fps, MPEG-2 Video ~ 9800 kbps avg
Аудио #1: Русский: 48 kHz, AC3 Dolby Digital, 6 ch, ~ 448 kbps avg [Профессиональный (многоголосый, закадровый)]
Аудио #2: Английский: 48 kHz, AC3 Dolby Digital, 6 ch, ~ 448 kbps avg [Оригинал]
Аудио #3: Русский: 48 kHz, DTS Dolby Digital, 6 ch, ~ 1 510 kbps avg [Профессиональный (многоголосый, закадровый)]

Доп.информация: [Лицензионное издание «CP Digital»]
Meню озвученное, частично анимированное, на русском языке, с навигацией по эпизодам. Все кнопки функциональны.

Слоган: «Голливудский мозгоправ тоже расслабляется»


General
Complete name: D:\DVD\Психоаналитик\VIDEO_TS\VTS_05_2.VOB
Format: MPEG-PS
File size: 1 024 MiB
Duration: 18mn 22s
Overall bit rate: 7 787 Kbps

Video
ID: 224 (0xE0)
Format: MPEG Video
Format version: Version 2
Format profile: Main@Main
Format settings, BVOP: Yes
Format settings, Matrix: Default
Format settings, GOP: M=3, N=12
Duration: 18mn 22s
Bit rate mode: Variable
Bit rate: 5 226 Kbps
Nominal bit rate: 9 800 Kbps
Width: 720 pixels
Height: 480 pixels
Display aspect ratio: 16:9
Frame rate: 23.976 fps
Standard: NTSC
Color space: YUV
Chroma subsampling: 4:2:0
Bit depth: 8 bits
Scan type: Progressive
Scan order: 2:3 Pulldown
Bits/(Pixel*Frame): 0.631
Stream size: 687 MiB (67%)

Audio #1
ID: 128 (0x80)
Format: AC-3
Format/Info: Audio Coding 3
Mode extension: CM (complete main)
Duration: 18mn 22s
Bit rate mode: Constant
Bit rate: 448 Kbps
Channel(s): 6 channels
Channel positions: Front: L C R, Side: L R, LFE
Sampling rate: 48.0 KHz
Bit depth: 16 bits
Video delay: -546ms
Stream size: 58.9 MiB (6%)

Audio #2
ID: 129 (0x81)
Format: AC-3
Format/Info: Audio Coding 3
Mode extension: CM (complete main)
Duration: 18mn 22s
Bit rate mode: Constant
Bit rate: 448 Kbps
Channel(s): 6 channels
Channel positions: Front: L C R, Side: L R, LFE
Sampling rate: 48.0 KHz
Bit depth: 16 bits
Video delay: -546ms
Stream size: 58.9 MiB (6%)

Audio #3
ID: 138 (0x8A)
Format: DTS
Format/Info: Digital Theater Systems
Duration: 18mn 22s
Bit rate mode: Constant
Bit rate: 1 510 Kbps
Channel(s): 6 channels
Channel positions: Front: L C R, Side: L R, LFE
Sampling rate: 48.0 KHz
Bit depth: 24 bits
Video delay: -589ms
Stream size: 198 MiB (19%)

Text #1
ID: 224 (0xE0)-DVD-2
Format: EIA-608
Muxing mode: DVD-Video
Muxing mode, more info: Muxed in Video #1
Stream size: 0.00 Byte (0%)



















Поделиться:




реклама партнёра


Вернуться к началу
 Профиль Отправить личное сообщение  
 
   Похожие торренты   Автор   Торрент   Размер 
В этой теме нет новых непрочитанных сообщений. Кровь и нефть / Blood & Oil [01х01-10 из 10] (Джонас Пейт) [Драма, 2015] HDTVRip, Mvo [IdeaFilm]

Dracon

70 | 33

4.33 ГБ

В этой теме нет новых непрочитанных сообщений. Кровь и нефть / Blood & Oil [01х01-10 из 13] (Джонас Пейт) [2015, драма, WEB-DLRip | BaibaKo]

Dracon

1 | 1

5.55 ГБ

В этой теме нет новых непрочитанных сообщений. Кровь и нефть / Blood & Oil [01х01-10 из 13] (Джонас Пейт) [драма, 2015] WEB-DL 1080p, Mvo [BaibaKo]

Dracon

0 | 1

17.62 ГБ

В этой теме нет новых непрочитанных сообщений. Кровь и нефть / Blood & Oil [01х01-10 из 10] (Джонас Пейт) [Драма, 2015] HDTV 720p, Mvo [IdeaFilm]

Dracon

40 | 24

13.51 ГБ

В этой теме нет новых непрочитанных сообщений. Кровь и нефть / Blood and Oil [01x01-10 из 13] (Джонас Пейт, Микаэл Саломон) [2015, драма, WEB-DLRip | Newstudio]

Dracon

2 | 3

5.29 ГБ

В этой теме нет новых непрочитанных сообщений. Водолей / Aquarius [S01] (Джонас Пейт, Майкл Цинберг, Джон Эмиел) [Драма, детектив, 2015] WEB-DLRip-AVC, Mvo [Jaskier]

Dracon

132 | 31

3.59 ГБ

В этой теме нет новых непрочитанных сообщений. Водолей / Aquarius [01x01-13 из 13] (Джонас Пейт, Майкл Цинберг, Джон Эмиел) [Драма, детектив, 2015] WEB-DLRip, Mvo [Jaskier]

Dracon

674 | 174

7.19 ГБ


Начать новую тему Ответить на тему  [ 1 сообщение ] 




Для Мосгорсуда, Роскомнадзора и рекламодателей:: mosgorsud-torrent[собачка]yandex.ru