Торрент файл
скачать торрент магнет ссылка Добавлен: 07 янв 2012, 18:57
Размер: 5.04 ГБ
Сидеров: 0
Личеров: 5
Автор

СообщениеДобавлено: 07 янв 2012, 18:57 

Не в сети
Супермодератор
Аватара пользователя
Дата регистрации:
11 апр 2010, 18:10
Спасибо: 5915 / 7
Сообщения: 56776
Война невест / Bride Wars


Перевод: Профессиональный (полное дублирование)
Субтитры: Казахские, русские, украинские
Формат: DVD9, DVD Video, MPEG2, AC3, DTS
Страна: США
Режиссер: Гари Виник
Жанр: мелодрама, комедия
Продолжительность: 01:25:18
Год выпуска: 2009

В ролях: Кейт Хадсон, Энн Хэтэуэй, Кэндис Берген, Брайан Гринберг, Стив Хауи, Кристен Джонсон, Крис Пратт, Кэйси Роуз Уилсон, Джун Рафаэл, Джон Панкоу

Описание: Конец дружбе Эммы и Лив кладут их свадьбы, намеченные на один и тот же день. Никто не хочет уступать товарке, и погулять сначала у нее, а потом закатить пир самой. Девушки начинают отчаянную конкуренцию за место проведения торжества, гостей и предоставляемые услуги, не желая ни в чем уступать сопернице…

Рейтинг на IMDB: 5.0/10
Рейтинг МРАА: PG
Рейтинг КиноПоиск.RU: 6.643

Видео: 720x576 (PAL 16:9), 25,000 fps, MPEG-2 Video ~ 7500 kbps avg
Аудио #1: Русский: 48 kHz, AC3 Dolby Digital, 6 ch, ~ 384 kbps avg [Профессиональный (полное дублирование)]
Аудио #2: Русский: 48 kHz, DTS Dolby Digital, 6 ch, ~ 755 kbps avg [Профессиональный (полное дублирование)]
Аудио #3: Украинский: 48 kHz, AC3 Dolby Digital, 6 ch, ~ 384 kbps avg [Профессиональный (полное дублирование)]

Доп.информация: [Лицензионное издание «Двадцатый Век Фокс СНГ»]
Meню озвученное, частично анимированное, на русском языке, с навигацией по эпизодам. Все кнопки функциональны.

Слоган: «Подруга подкинула проблем...»


General
Complete name: D:\DVD\Война невест\VIDEO_TS\VTS_01_4.VOB
Format: MPEG-PS
File size: 1 024 MiB
Duration: 19mn 50s
Overall bit rate: 7 214 Kbps

Video
ID: 224 (0xE0)
Format: MPEG Video
Format version: Version 2
Format profile: Main@Main
Format settings, BVOP: Yes
Format settings, Matrix: Default
Format settings, GOP: M=3, N=15
Duration: 19mn 50s
Bit rate mode: Variable
Bit rate: 5 548 Kbps
Nominal bit rate: 7 500 Kbps
Width: 720 pixels
Height: 576 pixels
Display aspect ratio: 16:9
Frame rate: 25.000 fps
Standard: PAL
Color space: YUV
Chroma subsampling: 4:2:0
Bit depth: 8 bits
Scan type: Progressive
Scan order: Top Field First
Bits/(Pixel*Frame): 0.535
Stream size: 787 MiB (77%)

Audio #1
ID: 128 (0x80)
Format: AC-3
Format/Info: Audio Coding 3
Mode extension: CM (complete main)
Duration: 19mn 50s
Bit rate mode: Constant
Bit rate: 384 Kbps
Channel(s): 6 channels
Channel positions: Front: L C R, Side: L R, LFE
Sampling rate: 48.0 KHz
Bit depth: 16 bits
Video delay: -176ms
Stream size: 54.5 MiB (5%)

Audio #2
ID: 130 (0x82)
Format: AC-3
Format/Info: Audio Coding 3
Mode extension: CM (complete main)
Duration: 19mn 50s
Bit rate mode: Constant
Bit rate: 384 Kbps
Channel(s): 6 channels
Channel positions: Front: L C R, Side: L R, LFE
Sampling rate: 48.0 KHz
Bit depth: 16 bits
Video delay: -176ms
Stream size: 54.5 MiB (5%)

Audio #3
ID: 137 (0x89)
Format: DTS
Format/Info: Digital Theater Systems
Duration: 19mn 50s
Bit rate mode: Constant
Bit rate: 755 Kbps
Channel(s): 6 channels
Channel positions: Front: L C R, Side: L R, LFE
Sampling rate: 48.0 KHz
Bit depth: 24 bits
Video delay: -240ms
Stream size: 107 MiB (10%)

Text #1
ID: 32 (0x20)
Format: RLE
Format/Info: Run-length encoding

Text #2
ID: 33 (0x21)
Format: RLE
Format/Info: Run-length encoding

Text #3
ID: 34 (0x22)
Format: RLE
Format/Info: Run-length encoding



















Поделиться:




реклама партнёра


Вернуться к началу
 Профиль Отправить личное сообщение  
 
   Похожие торренты   Автор   Торрент   Размер 
В этой теме нет новых непрочитанных сообщений. Война невест / Bride Wars [Комедия, романтика, 2015] HDRip, Mvo

salma3

89 | 17

1.36 ГБ

В этой теме нет новых непрочитанных сообщений. Скорость Гари / Скоростной Гари / The Velocity of Gary [драма, мелодрама, 1998] DVDRip, Avo

salma3

2 | 1

1.49 ГБ

В этой теме нет новых непрочитанных сообщений. Собственная война / Private Wars [Боевик, 1993] DVDRip, Avo

salma3

5 | 5

1.46 ГБ

В этой теме нет новых непрочитанных сообщений. Моя невеста из Болливуда / My Bollywood Bride [Драма, мелодрама, комедия, 2006] DVDRip, Dvo

salma3

33 | 7

1.37 ГБ

В этой теме нет новых непрочитанных сообщений. Притворись моим мужем / You May Not Kiss the Bride [мелодрама, комедия, приключения, 2012] BDRemux 1080p, Mvo

salma3

5 | 1

20.65 ГБ

В этой теме нет новых непрочитанных сообщений. Все о дне святого Валентина / All Things Valentine (Гари Харви / Gary Harvey) [2016г., драма, мелодрама, комедия, HDTVRip]mvo

Alfredovich

0 | 0

1.37 ГБ

В этой теме нет новых непрочитанных сообщений. Ловушка для невесты / The Decoy Bride [комедия, драма, 2011] BDRip 1080p, Mvo+Sub

salma3

2 | 4

4.37 ГБ


Начать новую тему Ответить на тему  [ 1 сообщение ] 




Для Мосгорсуда, Роскомнадзора и рекламодателей:: mosgorsud-torrent[собачка]yandex.ru