Торрент файл
скачать торрент магнет ссылка Добавлен: 07 янв 2012, 18:57
Размер: 7.5 ГБ
Сидеров: 0
Личеров: 5
Автор

СообщениеДобавлено: 07 янв 2012, 18:57 

Не в сети
Супермодератор
Аватара пользователя
Дата регистрации:
11 апр 2010, 18:10
Спасибо: 5801 / 7
Сообщения: 56779
Солист / The Soloist


Перевод: Профессиональный (полное дублирование)
Субтитры: Английские, немецкие, хорватские, турецкие, украинские, эстонские, латышские, литовские, словенские
Формат: DVD9, DVD Video, MPEG2, AC3
Страна: США, Франция, Великобритания
Режиссер: Джо Райт
Жанр: драма, биография, музыка
Продолжительность: 01:51:58
Год выпуска: 2009

В ролях: Джейми Фокс, Роберт Дауни мл., Мегган Андерсон, Хелберт Берналь, Мэтт Бессер, Трой Бленелл, Пит Браун, Майкл Бунин, Джошуа Кабрера, Лиза Гэй Хэмилтон

Описание: Журналист Стив Лопес встречает Натаниеля Айерса, бывшего виртуозного музыканта, вынужденного играть на виолончели на улицах Лос-Анджелеса. Лопес пытается помочь бездомному вернуться к нормальной жизни, и между ними возникает уникальная дружба, которая меняет судьбу обоих.

Рейтинг на IMDB: 6.7/10
Рейтинг МРАА: PG-13
Рейтинг КиноПоиск.RU: 7.085

Видео: 720x576 (PAL 16:9), 25,000 fps, MPEG-2 Video ~ 9000 kbps avg
Аудио #1: Английский: 48 kHz, AC3 Dolby Digital, 6 ch, ~ 448 kbps avg [Оригинал]
Аудио #2: Немецкий: 48 kHz, AC3 Dolby Digital, 6 ch, ~ 448 kbps avg
Аудио #3: Русский: 48 kHz, AC3 Dolby Digital, 6 ch, ~ 448 kbps avg [Профессиональный (полное дублирование)]
Аудио #4: Английский: 48 kHz, AC3 Dolby Digital, 2 ch, ~ 192 kbps avg [Комментарии режессера]

Доп.информация: [Лицензионное издание «Юниверсал Пикчерс Рус»]
Meню озвученное, статичное, на русском языке, с навигацией по эпизодам. Все кнопки функциональны.

Слоган: «У жизни есть собственный ум»


General
Complete name: D:\DVD\Солист\VIDEO_TS\VTS_01_6.VOB
Format: MPEG-PS
File size: 992 MiB
Duration: 19mn 4s
Overall bit rate: 7 271 Kbps

Video
ID: 224 (0xE0)
Format: MPEG Video
Format version: Version 2
Format profile: Main@Main
Format settings, BVOP: Yes
Format settings, Matrix: Default
Duration: 19mn 4s
Bit rate mode: Variable
Bit rate: 5 782 Kbps
Nominal bit rate: 9 800 Kbps
Width: 720 pixels
Height: 576 pixels
Display aspect ratio: 16:9
Frame rate: 25.000 fps
Standard: PAL
Color space: YUV
Chroma subsampling: 4:2:0
Bit depth: 8 bits
Scan type: Interlaced
Scan order: Top Field First
Bits/(Pixel*Frame): 0.558
Stream size: 789 MiB (80%)

Audio #1
ID: 128 (0x80)
Format: AC-3
Format/Info: Audio Coding 3
Mode extension: CM (complete main)
Duration: 19mn 4s
Bit rate mode: Constant
Bit rate: 384 Kbps
Channel(s): 6 channels
Channel positions: Front: L C R, Side: L R, LFE
Sampling rate: 48.0 KHz
Bit depth: 16 bits
Video delay: -264ms
Stream size: 52.4 MiB (5%)

Audio #2
ID: 129 (0x81)
Format: AC-3
Format/Info: Audio Coding 3
Mode extension: CM (complete main)
Duration: 19mn 4s
Bit rate mode: Constant
Bit rate: 384 Kbps
Channel(s): 6 channels
Channel positions: Front: L C R, Side: L R, LFE
Sampling rate: 48.0 KHz
Bit depth: 16 bits
Video delay: -264ms
Stream size: 52.4 MiB (5%)

Audio #3
ID: 130 (0x82)
Format: AC-3
Format/Info: Audio Coding 3
Mode extension: CM (complete main)
Duration: 19mn 4s
Bit rate mode: Constant
Bit rate: 384 Kbps
Channel(s): 6 channels
Channel positions: Front: L C R, Side: L R, LFE
Sampling rate: 48.0 KHz
Bit depth: 16 bits
Video delay: -264ms
Stream size: 52.4 MiB (5%)

Audio #4
ID: 131 (0x83)
Format: AC-3
Format/Info: Audio Coding 3
Format profile: Dolby Digital
Mode extension: CM (complete main)
Duration: 19mn 4s
Bit rate mode: Constant
Bit rate: 192 Kbps
Channel(s): 2 channels
Channel positions: Front: L R
Sampling rate: 48.0 KHz
Bit depth: 16 bits
Video delay: -232ms
Stream size: 26.2 MiB (3%)

Text #1
ID: 41 (0x29)
Format: RLE
Format/Info: Run-length encoding
Video delay: 520ms

Text #2
ID: 42 (0x2A)
Format: RLE
Format/Info: Run-length encoding
Duration: 19mn 0s
Video delay: 520ms

Text #3
ID: 43 (0x2B)
Format: RLE
Format/Info: Run-length encoding
Duration: 19mn 0s
Video delay: 520ms

Text #4
ID: 44 (0x2C)
Format: RLE
Format/Info: Run-length encoding
Duration: 19mn 0s
Video delay: 520ms

Text #5
ID: 45 (0x2D)
Format: RLE
Format/Info: Run-length encoding
Duration: 19mn 0s
Video delay: 520ms

Text #6
ID: 46 (0x2E)
Format: RLE
Format/Info: Run-length encoding
Duration: 19mn 0s
Video delay: 520ms

Text #7
ID: 32 (0x20)
Format: RLE
Format/Info: Run-length encoding

Text #8
ID: 33 (0x21)
Format: RLE
Format/Info: Run-length encoding

Text #9
ID: 34 (0x22)
Format: RLE
Format/Info: Run-length encoding



















Поделиться:




реклама партнёра


Вернуться к началу
 Профиль Отправить личное сообщение  
 
   Похожие торренты   Автор   Торрент   Размер 
В этой теме нет новых непрочитанных сообщений. Джими Хендрикс / All Is by My Side [Драма, биография, музыка, 2013] DVD9, Mvo+Sub [лицензия]

Dracon

42 | 4

5.75 ГБ

В этой теме нет новых непрочитанных сообщений. Стать Джоном Ленноном / Nowhere Boy [Драма, музыка, биография, 2009] BDRip 720p, Dub+Sub

salma3

48 | 7

3.74 ГБ

В этой теме нет новых непрочитанных сообщений. Блеск / Shine [драма, мелодрама, биография, музыка, 1996] BDRemux, Dvo+Avo+Sub

salma3

5 | 3

23.1 ГБ

В этой теме нет новых непрочитанных сообщений. Вальс для Моники / Monica Z (Пер Флю) [Драма, биография, музыка, 2013] HDRip, Mvo

Dracon

0 | 4

1.46 ГБ

В этой теме нет новых непрочитанных сообщений. Сид и Нэнси / Sid and Nancy [драма, биография, музыка, 1986] BDRip 720p, Dvo+Avo+Sub

salma3

71 | 4

6.99 ГБ

В этой теме нет новых непрочитанных сообщений. Бесси / Bessie (Ди Риис) [Драма, Биография, Музыка, 2015] HDRip, Mvo [Amedia]

Dracon

3 | 0

1.37 ГБ

В этой теме нет новых непрочитанных сообщений. Рождённый для грусти / Born to Be Blue [драма, биография, музыка, 2015] HDRip, Mvo

salma3

100 | 2

699.67 МБ


Начать новую тему Ответить на тему  [ 1 сообщение ] 




Для Мосгорсуда, Роскомнадзора и рекламодателей:: mosgorsud-torrent[собачка]yandex.ru