Торрент файл
скачать торрент магнет ссылка Добавлен: 07 янв 2012, 18:57
Размер: 7.46 ГБ
Сидеров: 8
Личеров: 8
Автор

СообщениеДобавлено: 07 янв 2012, 18:57 

Не в сети
Супермодератор
Аватара пользователя
Дата регистрации:
11 апр 2010, 18:10
Спасибо: 5799 / 7
Сообщения: 56779
Вокзал для двоих (2 серии из 2)


Перевод: Не требуется
Субтитры: Отсутсвуют
Формат: DVD9, DVD Video, MPEG2, AC3
Страна: СССР
Режиссер: Эльдар Рязанов
Жанр: мелодрама
Продолжительность:2 x ~ 01:08:57
Год выпуска: 1982

В ролях: Людмила Гурченко, Олег Басилашвили, Никита Михалков, Нонна Мордюкова, Михаил Кононов, Анастасия Вознесенская, Александр Ширвиндт, Татьяна Догилева, Ольга Волкова, Раиса Этуш, Тимур Юнусов, Анатолий Скорякин, Станислав Садальский, Алла Будницкая

Описание: Город Заступинск, где-то между Москвой и Алма-Атой, ближе к Воронежу. Вокзальная буфетчица Вера и пианист Платон Рябинин из Москвы познакомились при весьма непривлекательных обстоятельствах. В результате Вера потеряла жениха с дынями, но нашла любимого, который вскоре должен отбыть в отдаленные места, чтобы нести наказание за несовершенное преступление…

Рейтинг на IMDB: 7.8/10
Рейтинг КиноПоиск.RU: 7.770

Видео: 720x576 (PAL 4:3), 25,000 fps, MPEG-2 Video ~ 7000 kbps avg
Аудио #1: Русский: 48 kHz, AC3 Dolby Digital, 6 ch, ~ 448 kbps avg
Аудио #2: Русский: 48 kHz, AC3 Dolby Digital, 1 ch, ~ 224 kbps avg

Доп.информация: [Лицензионное издание « Крупный План»]
Meню озвученное, анимированное, на русском языке, с навигацией по эпизодам. Все кнопки функциональны.


General
Complete name: D:\DVD\Вокзал для двоих\VIDEO_TS\VTS_02_2.VOB
Format: MPEG-PS
File size: 1 024 MiB
Duration: 18mn 19s
Overall bit rate: 7 813 Kbps

Video
ID: 224 (0xE0)
Format: MPEG Video
Format version: Version 2
Format profile: Main@Main
Format settings, BVOP: Yes
Format settings, Matrix: Default
Format settings, GOP: M=3, N=12
Duration: 18mn 19s
Bit rate mode: Constant
Bit rate: 7 000 Kbps
Width: 720 pixels
Height: 576 pixels
Display aspect ratio: 4:3
Frame rate: 25.000 fps
Standard: PAL
Color space: YUV
Chroma subsampling: 4:2:0
Bit depth: 8 bits
Scan type: Interlaced
Scan order: Top Field First
Bits/(Pixel*Frame): 0.675
Stream size: 915 MiB (89%)

Audio #1
ID: 128 (0x80)
Format: AC-3
Format/Info: Audio Coding 3
Mode extension: CM (complete main)
Duration: 18mn 19s
Bit rate mode: Constant
Bit rate: 448 Kbps
Channel(s): 6 channels
Channel positions: Front: L C R, Side: L R, LFE
Sampling rate: 48.0 KHz
Bit depth: 16 bits
Video delay: -432ms
Stream size: 58.7 MiB (6%)

Audio #2
ID: 129 (0x81)
Format: AC-3
Format/Info: Audio Coding 3
Mode extension: CM (complete main)
Duration: 18mn 19s
Bit rate mode: Constant
Bit rate: 224 Kbps
Channel(s): 1 channel
Channel positions: Front: C
Sampling rate: 48.0 KHz
Bit depth: 16 bits
Video delay: -400ms
Stream size: 29.4 MiB (3%)























Поделиться:




реклама партнёра


Вернуться к началу
 Профиль Отправить личное сообщение  
 
   Похожие торренты   Автор   Торрент   Размер 
В этой теме нет новых непрочитанных сообщений. Мир для двоих [01-04 из 04] [Мелодрама, 2014] SATRip

Dracon

394 | 70

2.1 ГБ

В этой теме нет новых непрочитанных сообщений. Призрак на двоих (Мелодрама, 2016) WEB-DLRip

marya111

84 | 7

1.37 ГБ

В этой теме нет новых непрочитанных сообщений. Призрак на двоих [мелодрама, 2016] SATRip

salma3

1096 | 105

1.36 ГБ

В этой теме нет новых непрочитанных сообщений. Призрак на двоих (Мелодрама, 2016) WEB-DLRip от MegaPeer

marya111

66 | 0

745.36 МБ

В этой теме нет новых непрочитанных сообщений. Призрак на двоих (Мелодрама, 2016) WEB-DLRip-AVC от Files-x

marya111

0 | 0

1.37 ГБ

В этой теме нет новых непрочитанных сообщений. За нас двоих / A nous deux [мелодрама, криминал, 1979] DVDRip-AVC, Mvo+Sub

salma3

5 | 3

1.45 ГБ

В этой теме нет новых непрочитанных сообщений. За нас двоих / A nous deux [мелодрама, криминал, 1979] DVD5, Mvo+Sub

salma3

2 | 4

4.36 ГБ


Начать новую тему Ответить на тему  [ 1 сообщение ] 




Для Мосгорсуда, Роскомнадзора и рекламодателей:: mosgorsud-torrent[собачка]yandex.ru