Торрент файл
скачать торрент магнет ссылка Добавлен: 07 янв 2012, 18:56
Размер: 6.57 ГБ
Сидеров: 0
Личеров: 11
Автор

СообщениеДобавлено: 07 янв 2012, 18:56 

Не в сети
Супермодератор
Аватара пользователя
Дата регистрации:
11 апр 2010, 18:10
Спасибо: 5802 / 7
Сообщения: 56779
Девять ярдов / The Whole Nine Yards

Перевод: Профессиональный (полное дублирование)
Субтитры:Русские
Формат:DVD9, DVD Video, MPEG2, AC3
Страна:США
Режиссер:Джонатан Линн
Жанр:Драма, мелодрама, комедия, криминал, приключения
Продолжительность:01:34:47
Год выпуска:2000

В ролях:Мэттью Перри, Брюс Уиллис, Розанна Аркетт, Майкл Кларк Данкэн, Наташа Хенстридж, Аманда Пит, Кевин Поллак

Описание: Николас Озерански — для друзей просто Оз — вел спокойную, размеренную жизнь. Он был неплохим дантистом, жил в престижном пригороде Монреаля и мучился со стервой — женой, от которой никак не мог избавиться. Знакомство с новым соседом положило этой жизни конец раз и навсегда…

Джимми Тюльпан был профессиональным убийцей в клане чикагского мафиози Ласло Гоголака. «Кинув» своего босса на десять миллионов долларов, обаяшка Джимми переехал в тихий канадский пригород, чтобы спокойно пожить на заработанные нелегким трудом денежки. Но тут в его планы самым коварным образом вмешалась жена Николаса Софи.

Она решила сдать Джимми его бывшему боссу, который назначил за голову своего непутевого наемника огромное вознаграждение. Решив, что, получив деньги, жена все-таки отстанет от него, Оз отправился в Чикаго… Казалось, Софи просчитала все. Но тщательно разработанный план дал сбой, стоило Озу бросить один взгляд на Синтию, жену Джимми Тюльпана. Надо сказать, что красавица ответила ему такой же молниеносной любовью! Недолго думая, Софи рассказала Джимми о цели поездки своего супруга и… наняла киллера, чтобы прикончить своего неверного супруга.


Рейтинг на КиноПоиск: 7.864
Рейтинг на IMDB: 6.6/10
Рейтинг на МРАА: R

Видео:720x576 (PAL 2,35:1), 25.000 fps, MPEG2 Video, ~6856 kbps avg
Аудио#1:Русский: 48kHz, AC3, 6ch, ~448 Kbps avg [Профессиональный (полное дублирование)]
Аудио#2:Русский: 48kHz, AC3, 6ch, ~448 Kbps avg [Профессиональный (многоголосый, закадровый)]
Аудио#3:Английский: 48kHz, AC3, 6ch, ~448 Kbps avg [Оригинал]


Общее
Полное имя: L:\фильмы в DVD\Deveati_yardov_1\VIDEO_TS\VTS_02_1.VOB
Формат: MPEG-PS
Размер файла: 1024 Мбайт
Продолжительность: 17 м.
Общий поток: 8367 Кбит/сек

Видео
Идентификатор: 224 (0xE0)
Формат: MPEG Video
Версия формата: Version 2
Профиль формата: Main@Main
Параметр BVOP формата: Да
Параметр матрицы формата: По умолчанию
Продолжительность: 17 м.
Вид битрейта: Переменный
Битрейт: 6856 Кбит/сек
Ширина: 720 пикс.
Высота: 576 пикс.
Соотношение сторон: 2,35:1
Частота кадров: 25,000 кадр/сек
Стандарт вещания: PAL
Цветовое пространство: YUV
Подвыборка цветности: 4:2:0
Битовая глубина: 8 бит
Метод сжатия: С потерями
Бит/(Пиксели*Кадры): 0.661
Размер потока: 839 Мбайт (82%)

Аудио #1
Идентификатор: 189 (0xBD)-128 (0x80)
Формат: AC-3
Формат/Информация: Audio Coding 3
Расширение режима: CM (complete main)
Режим смешивания: DVD-Video
Продолжительность: 17 м.
Вид битрейта: Постоянный
Битрейт: 448 Кбит/сек
Канал(ы): 6 канала(ов)
Расположение каналов: Front: L C R, Side: L R, LFE
Частота: 48,0 КГц
Битовая глубина: 16 бит
Метод сжатия: С потерями
Задержка видео: 16 мс.
Размер потока: 54,8 Мбайт (5%)

Аудио #2
Идентификатор: 189 (0xBD)-129 (0x81)
Формат: AC-3
Формат/Информация: Audio Coding 3
Расширение режима: CM (complete main)
Режим смешивания: DVD-Video
Продолжительность: 17 м.
Вид битрейта: Постоянный
Битрейт: 448 Кбит/сек
Канал(ы): 6 канала(ов)
Расположение каналов: Front: L C R, Side: L R, LFE
Частота: 48,0 КГц
Битовая глубина: 16 бит
Метод сжатия: С потерями
Задержка видео: 16 мс.
Размер потока: 54,8 Мбайт (5%)

Аудио #3
Идентификатор: 189 (0xBD)-130 (0x82)
Формат: AC-3
Формат/Информация: Audio Coding 3
Расширение режима: CM (complete main)
Режим смешивания: DVD-Video
Продолжительность: 17 м.
Вид битрейта: Постоянный
Битрейт: 448 Кбит/сек
Канал(ы): 6 канала(ов)
Расположение каналов: Front: L C R, Side: L R, LFE
Частота: 48,0 КГц
Битовая глубина: 16 бит
Метод сжатия: С потерями
Задержка видео: 16 мс.
Размер потока: 54,8 Мбайт (5%)

Текст #1
Идентификатор: 189 (0xBD)-32 (0x20)
Формат: RLE
Формат/Информация: Run-length encoding
Режим смешивания: DVD-Video

Текст #2
Идентификатор: 189 (0xBD)-33 (0x21)
Формат: RLE
Формат/Информация: Run-length encoding
Режим смешивания: DVD-Video

Текст #3
Идентификатор: 189 (0xBD)-34 (0x22)
Формат: RLE
Формат/Информация: Run-length encoding
Режим смешивания: DVD-Video

Меню

[b]






[b]














[b]Поделиться:




реклама партнёра


Вернуться к началу
 Профиль Отправить личное сообщение  
 
   Похожие торренты   Автор   Торрент   Размер 
В этой теме нет новых непрочитанных сообщений. Радиоволна / Frequency [триллер, фантастика, драма, криминал, 2000] DVD9, Mvo+Sub

salma3

11 | 2

5.06 ГБ

В этой теме нет новых непрочитанных сообщений. Детка / Laggies (Линн Шелтон) [мелодрама, комедия, 2014] HDRip, Dub [iTunes]

Dracon

111 | 6

1.37 ГБ

В этой теме нет новых непрочитанных сообщений. Детка / Laggies (Линн Шелтон / Lynn Shelton) [2014г., мелодрама, комедия, WEB-DL 1080p] DUB

Alfredovich

82 | 2

2.84 ГБ

В этой теме нет новых непрочитанных сообщений. Детка / Laggies (Линн Шелтон) [мелодрама, комедия, 2014] BDRip 1080p, Dub [iTunes]

Dracon

6 | 4

7.91 ГБ

В этой теме нет новых непрочитанных сообщений. Детка / Laggies (Линн Шелтон) [мелодрама, комедия, 2014] BDRip 720p, Dub [iTunes]

Dracon

38 | 5

4.63 ГБ

В этой теме нет новых непрочитанных сообщений. Супершпион / Gun Shy [мелодрама, комедия, криминал, 2000] WEB-DLRip, Dvo

salma3

105 | 27

1.46 ГБ

В этой теме нет новых непрочитанных сообщений. Трикси / Trixie [мелодрама, комедия, криминал, детектив, 2000] DVDRip, Dvo

salma3

9 | 2

1.14 ГБ


Начать новую тему Ответить на тему  [ 1 сообщение ] 




Для Мосгорсуда, Роскомнадзора и рекламодателей:: mosgorsud-torrent[собачка]yandex.ru