Торрент файл
скачать торрент магнет ссылка Добавлен: 07 янв 2012, 18:44
Размер: 7.88 ГБ
Сидеров: 1
Личеров: 4
Автор

СообщениеДобавлено: 07 янв 2012, 18:44 

Не в сети
Супермодератор
Аватара пользователя
Дата регистрации:
11 апр 2010, 18:10
Спасибо: 5802 / 7
Сообщения: 56779
Подводная лодка [Режисерская версия]/ Das Boot [Director's cut]

Перевод: Профессиональный (многоголосый, закадровый)
Субтитры: Русские
Формат: DVD9, DVD Video, MPEG2, AC3
Страна: Германия (ФРГ)
Режиссер: Вольфганг Петерсен
Жанр: Боевик, драма, история
Продолжительность: 03:27:53
Год выпуска: 1981

В ролях: Юрген Прохнов, Херберт Грёнемайер, Клаус Веннеманн, Хабертус Бенгш, Отто Зандер, Гюнтер Лампрехт, Мартин Май, Хайнц Хёниг, Уве Оксенкнехт, Клод-Оливер Рудольф ...

Описание: Осень 1941 года. Немецкая подводная лодка отправляется в Атлантический океан,
место противостояния германского и английского флотов. Жизнь по строгому распорядку,
учебные тревоги, воспоминания о семьях и любимых девушках, соленые мужские
шуточки… Скоро всё это закончится. Потому что впереди — ад и никакой надежды на спасение…


Рейтинг на КиноПоиск: 8.211 (1 985)
Рейтинг на IMDb: 8.5/10
Рейтинг MPAA: R

Видео: 720х480 (NTSC 16:9), 23,976fps, MPEG-2 Video, ~ 9 800Kbps avg
Аудио#1: Немецкий 48.0KHz, AC-3, 6 ch, ~ 384Kbps avg[Оригинал]
Аудио#2: Русский 48.0KHz, AC-3, 6 ch, ~ 448Kbps avg[Профессиональный (многоголосый, закадровый)]
Аудио#3: Английский 48.0KHz, AC-3, 2 ch, ~ 192Kbps avg[Комментарий к фильму]

Награды

Трейлер к фильму

Первая значительная лента немецкого постановщика Вольфганга Петерсена, нынче
весьма успешно работающего в Голливуде, является одной из лучших (и немногих) картин,
показавших Вторую мировую войну глазами проигравших захватчиков. За несколько лет
до этого вышла великолепная военная драма Сэма Пекинпа "Железный крест", и на сегодня
это два самых знаменитых фильма, где главными героями являются солдаты в нацистской
форме. Подобный ход всегда считался изначально чем-то аморальным, был недозволенным
приёмом, своеобразным кощунством над памятью пострадавших в этой войне.
У нас-то обе ленты давно ходили в списках "фашистских", а попытка показать "Лодку" на
Московском кинофестивале обернулась грандиозным скандалом. Это всегда была наша война,
мы не позволяли трогать её американцам или кому бы то ни было, тем более, чуть ли не подсудным
делом считалось рассказать русским ветеранам, что их враги тоже были живыми людьми,
проливали ту же кровь и умирали молодыми, далеко на родине оставив своих жён и детей.
"Обыкновенный фашизм" Михаила Ромма представлял немецкую армию бездушной
военизированной машиной и взывал только к одному чувству — ненависти. Жаль, не была столь
же популярна и "раскручена" у нас документалистика Романа Кармена, отобравшего
из немецкой кинохроники совсем иные кадры.
[/field]
Общее
Полное имя: D:\загрузка\das_boot_[tfile.ru]\VIDEO_TS\VTS_01_3.VOB
Формат: MPEG-PS
Размер файла: 1024 Мбайт
Продолжительность: 30 м.
Общий поток: 4700 Кбит/сек

Видео
Идентификатор: 224 (0xE0)
Формат: MPEG Video
Версия формата: Version 2
Профиль формата: Main@Main
Параметр BVOP формата: Да
Параметр матрицы формата: По умолчанию
Параметры GOP формата: M=3, N=12
Продолжительность: 30 м.
Вид битрейта: Переменный
Битрейт: 3582 Кбит/сек
Номинальный битрейт: 9800 Кбит/сек
Ширина: 720 пикс.
Высота: 480 пикс.
Соотношение сторон: 16:9
Частота кадров: 23,976 кадр/сек
Стандарт вещания: NTSC
Цветовое пространство: YUV
Подвыборка цветности: 4:2:0
Битовая глубина: 8 бит
Тип развёртки: Прогрессивная
Порядок развёртки: 2:3 Pulldown
Метод сжатия: С потерями
Бит/(Пиксели*Кадры): 0.432
Размер потока: 780 Мбайт (76%)

Аудио #1
Идентификатор: 128 (0x80)
Формат: AC-3
Формат/Информация: Audio Coding 3
Расширение режима: CM (complete main)
Продолжительность: 30 м.
Вид битрейта: Постоянный
Битрейт: 384 Кбит/сек
Канал(ы): 6 канала(ов)
Расположение каналов: Front: L C R, Side: L R, LFE
Частота: 48,0 КГц
Битовая глубина: 16 бит
Метод сжатия: С потерями
Задержка видео: -295 мс.
Размер потока: 83,7 Мбайт (8%)

Аудио #2
Идентификатор: 129 (0x81)
Формат: AC-3
Формат/Информация: Audio Coding 3
Расширение режима: CM (complete main)
Продолжительность: 30 м.
Вид битрейта: Постоянный
Битрейт: 448 Кбит/сек
Канал(ы): 6 канала(ов)
Расположение каналов: Front: L C R, Side: L R, LFE
Частота: 48,0 КГц
Битовая глубина: 16 бит
Метод сжатия: С потерями
Задержка видео: -295 мс.
Размер потока: 97,6 Мбайт (10%)

Аудио #3
Идентификатор: 130 (0x82)
Формат: AC-3
Формат/Информация: Audio Coding 3
Профиль формата: Dolby Digital
Расширение режима: CM (complete main)
Продолжительность: 30 м.
Вид битрейта: Постоянный
Битрейт: 192 Кбит/сек
Канал(ы): 2 канала(ов)
Расположение каналов: Front: L R
Частота: 48,0 КГц
Битовая глубина: 16 бит
Метод сжатия: С потерями
Задержка видео: -231 мс.
Размер потока: 41,8 Мбайт (4%)

Текст #1
Идентификатор: 32 (0x20)
Формат: RLE
Формат/Информация: Run-length encoding
Задержка видео: 17 с.

Текст #2
Идентификатор: 224 (0xE0)-DVD-2
Формат: EIA-608
Режим смешивания: DVD-Video
Режим смешивания, доп. информаци : Muxed in Video #1
Размер потока: 0,00 байт (0%)

Меню























Поделиться:




реклама партнёра


Вернуться к началу
 Профиль Отправить личное сообщение  
 
   Похожие торренты   Автор   Торрент   Размер 
В этой теме нет новых непрочитанных сообщений. Подводная лодка / Das Boot [боевик, драма, военный, история, 1981] BDRip 1080p, Mvo+Sub

salma3

30 | 6

38.12 ГБ

В этой теме нет новых непрочитанных сообщений. Скалолаз / Cliffhanger [боевик, триллер, приключения, 1993] DVD9, Dvo+Sub [Режиссерская версия]

salma3

13 | 7

7.06 ГБ

В этой теме нет новых непрочитанных сообщений. Недооформлен Самолет президента / Air Force One (Вольфганг Петерсен) [1997, боевик, триллер, драма, приключения, HDRip-AVC] DUB+MVO+AVO / Фильмы HDRip Данный торрент является блокированным, причина: недооформленный торрент

Kochesov

11 | 1

3.57 ГБ

В этой теме нет новых непрочитанных сообщений. Boot - Boot [1972, Hard Rock, MP3]

PriZraK

0 | 1

80.8 МБ

В этой теме нет новых непрочитанных сообщений. Немножко беременна / Knocked Up [мелодрама, комедия, 2007] BDRip, Dub [Режиссерская версия]

salma3

217 | 12

2.18 ГБ

В этой теме нет новых непрочитанных сообщений. Инсайдеры / Nae-bu-ja-deul (У Мин-хо / Woo Min-ho) [2015г., Южная Корея, триллер, драма, криминал, WEB-DLRip] [Режиссерская версия] DVO

Alfredovich

23 | 7

2.1 ГБ

В этой теме нет новых непрочитанных сообщений. Порт назначения / Daap hyut cam mui (драма, криминал, детектив, 2015) BDRip 1080p | А | Режиссерская версия

marya111

0 | 0

11.5 ГБ


Начать новую тему Ответить на тему  [ 1 сообщение ] 




Для Мосгорсуда, Роскомнадзора и рекламодателей:: mosgorsud-torrent[собачка]yandex.ru