Торрент файл
скачать торрент магнет ссылка Добавлен: 07 янв 2012, 18:40
Размер: 5.31 ГБ
Сидеров: 13
Личеров: 5
Автор

СообщениеДобавлено: 07 янв 2012, 18:40 

Не в сети
Супермодератор
Аватара пользователя
Дата регистрации:
11 апр 2010, 18:10
Спасибо: 5801 / 7
Сообщения: 56779
Мужчина в поисках эротики / The Erotic Man


Перевод: Профессиональный (двухголосый)
Субтитры: Отсутствуют
Формат: DVD9, MPEG, MPEG2, AC3
Страна: Дания
Режиссер: Йорген Лет
Жанр: Драма
Продолжительность: 01:25:07
Год выпуска: 2010

В ролях: Йорген Лет и другие

Описание: Друг и верный соратник Ларса фон Триера Йорген Лет отправился в путешествие по самым экзотическим странам мира (Гаити, Сенегал, Филиппины, Бразилия, Аргентина и многие другие) в поисках природы эротики. О чем думает женщина, когда смотрит на мужчину? Что она чувствует, когда мужчина смотрит на ее обнаженное тело? Есть ли у обнаженного женского тела свой особый язык? Для своего исследования Йорген Лет выбирал самых красивых, ярких и сексуальных женщин и попросил их сыграть одну и ту же сцену: обнаженная красавица в номере отеля оплакивает уехавшего в Европу возлюбленного, не теряя надежды на то, что он может вернуться… Каждая женщина переживала эту сцену по-своему и по-своему раскрывала свою любовь и чувства. После нескольких лет работы Лет снял гимн женской чувственности и сексуальности. Гимн эротичности, которую мужчина все же нашел после долгих поисков.

Рейтинг КиноПоиск.RU: 3.748
Рейтинг IMDB: 5.3/10

Видео: 720x576 (PAL 16:9) 25.00fps, MPEG2 Video, ~8000 kbps avg
Аудио#1:Русский48 kHz, AC3, 2 ch, 3/2 (L,R) ~192 kbps avg[Профессиональный (двухголосый) ]
Аудио#2:Датский48 kHz, AC3, 2 ch, 3/2 (L,R) ~192 kbps avg

Доп. информация: не рекомендуется к просмотру лицам не достигшим 18 летнего возраста !




General
Complete name: C:\Documents and Settings\Admin\Мои документы\the_erotic_man_[tfile.ru]\VIDEO_TS\VTS_04_1.VOB
Format: MPEG-PS
File size: 1 024 MiB
Duration: 18mn 40s
Overall bit rate: 7 665 Kbps
Writing library: (c) 1998-2010 Womble Multimedia, Inc. / MPEG Video Wizard DVD 5.0.0.114 (01/2010) / Dec 10 2010

Video
ID: 224 (0xE0)
Format: MPEG Video
Format version: Version 2
Format profile: Main@Main
Format settings, BVOP: Yes
Format settings, Matrix: Default
Duration: 18mn 40s
Bit rate mode: Variable
Bit rate: 7 128 Kbps
Nominal bit rate: 8 000 Kbps
Width: 720 pixels
Height: 576 pixels
Display aspect ratio: 16:9
Frame rate: 25.000 fps
Standard: PAL
Color space: YUV
Chroma subsampling: 4:2:0
Bit depth: 8 bits
Scan type: Interlaced
Scan order: Top Field First
Compression mode: Lossy
Bits/(Pixel*Frame): 0.688
Stream size: 952 MiB (93%)
Writing library: (c) 1998-2010 Womble Multimedia, Inc. / MPEG Video Wizard DVD 5.0.0.114 (01/2010) / Dec 10 2010

Audio #1
ID: 128 (0x80)
Format: AC-3
Format/Info: Audio Coding 3
Mode extension: CM (complete main)
Duration: 18mn 40s
Bit rate mode: Constant
Bit rate: 192 Kbps
Channel(s): 2 channels
Channel positions: Front: L R
Sampling rate: 48.0 KHz
Bit depth: 16 bits
Compression mode: Lossy
Video delay: -80ms
Stream size: 25.6 MiB (3%)

Audio #2
ID: 129 (0x81)
Format: AC-3
Format/Info: Audio Coding 3
Mode extension: CM (complete main)
Duration: 18mn 40s
Bit rate mode: Constant
Bit rate: 192 Kbps
Channel(s): 2 channels
Channel positions: Front: L R
Sampling rate: 48.0 KHz
Bit depth: 16 bits
Compression mode: Lossy
Video delay: -80ms
Stream size: 25.6 MiB (3%)

Text
ID: 32 (0x20)
Format: RLE
Format/Info: Run-length encoding
Video delay: 1s 160ms

Menu










Поделиться:




реклама партнёра


Вернуться к началу
 Профиль Отправить личное сообщение  
 
   Похожие торренты   Автор   Торрент   Размер 
В этой теме нет новых непрочитанных сообщений. Альбомчик легкой русской эротики [Amateur] [от 600*401 до 3872*2592, 226 фото, jpg + 1 видео]

Dile-1

1 | 0

351.62 МБ

В этой теме нет новых непрочитанных сообщений. Другой мужчина / The Other Man [триллер, драма, мелодрама, 2008] BDRip, Mvo

salma3

60 | 6

1.46 ГБ

В этой теме нет новых непрочитанных сообщений. Erotic Logic Games [Logic|Erotic, 2016] [Лицензия]

Tobus

30 | 0

249.73 МБ

В этой теме нет новых непрочитанных сообщений. Убийства во Фьелльбакке 6: В глазах смотрящего / Fjällbackamorden: I betraktarens öga / In the Eye of the Beholder (Йорген Бергмарк / Jörgen Bergmar) [2013г., Швеция, триллер, детектив, криминал, HDRip] VO

Alfredovich

32 | 16

1.45 ГБ

В этой теме нет новых непрочитанных сообщений. Мужчина и женщина / Raja Jani [драма, мелодрама, комедия, 2013] DVDRip, Mvo

salma3

10 | 5

1.42 ГБ

В этой теме нет новых непрочитанных сообщений. Мужчина и женщина / A Man and A Woman (Ли Юн-ги / Lee Yoon Ki) [2016г., Южная Корея, драма, мелодрама, HDRip] DVO

Alfredovich

17 | 5

1.42 ГБ

В этой теме нет новых непрочитанных сообщений. Мужчина, которого слишком сильно любили / L'homme qu'on aimait trop [драма, 2014] HDRip, Mvo

Dracon

5 | 3

2.06 ГБ


Начать новую тему Ответить на тему  [ 1 сообщение ] 




Для Мосгорсуда, Роскомнадзора и рекламодателей:: mosgorsud-torrent[собачка]yandex.ru