Торрент файл
скачать торрент магнет ссылка Добавлен: 07 янв 2012, 18:33
Размер: 6.83 ГБ
Сидеров: 4
Личеров: 4
Автор

СообщениеДобавлено: 07 янв 2012, 18:33 

Не в сети
Супермодератор
Аватара пользователя
Дата регистрации:
11 апр 2010, 18:10
Спасибо: 5798 / 7
Сообщения: 56779
Любовь: Инструкция по применению / Manuale d'am3re

Перевод: Профессиональный (полное дублирование)
Субтитры: Русские
Формат: DVD9, DVD Video, MPEG2, AC3
Страна: Италия
Режиссер: Джованни Веронези
Жанр: Мелодрама, комедия
Продолжительность: 02:01:07
Год выпуска: 2011

В ролях: Роберт Де Ниро, Моника Беллуччи, Риккардо Скамарчио, Микеле Плачидо, Лаура Кьятти, Валерия Соларино, Донателла Финокьяро, Карло Вердоне, Даниэле Печчи, Марина Рокко ...

Роли дублировали: Александр Клюквин, Марианна Шульц, Всеволод Кузнецов, Тимофей Спивак, Татьяна Шитова ...

Описание: Три новеллы повествуют о том, какой бывает любовь3D в разные периоды
жизни и как переплетения судеб и житейские случайности помогают разобраться
в природе человеческих чувств.
«Молодость» — это история3D, молодого амбициозного юриста Роберто,
которого накануне своей свадьбы неожиданно ослепляет вспышка страсти к
совсем другой женщине…
В «Зрелости» успешный телеведущий Фабио, преданный муж и заботливый отец,
по стечению удивительных обстоятельств оказывается в объятиях молодой Элианы…
«После» — история Адриана, американского профессора истории искусств,
который после развода решает переехать в Рим. Он одинок и подавлен. Единственный,
кто проявляет к Адриану хоть какой-то интерес3D — это швейцар Августо. Именно ему Адриан
рассказывает свою тайну: семь лет назад он перенес сложнейшую операцию на сердце.
Сжалившись над одиноким Адрианом, Августо приводит его в свой дом и знакомит
со своей семьей. Но как только Адриан видит красавицу-дочь Августо,
он мгновенно забывает о шрамах на своем сердце.


Рейтинг на КиноПоиск: 6.932 (46
Рейтинг на IMDb: 5.9/10

Видео:720x576 (PAL 16:9), 25.000fps, MPEG-2 Video, ~ 8500Kbps avg
Аудио#1: Русский 48.0KHz, AC-3, 6 ch, ~ 384Kbps avg[Профессиональный (полное дублирование)]
Аудио#2: Русский 48.0KHz, AC-3, 2 ch, ~ 192Kbps avg[Профессиональный (полное дублирование)]
Аудио#3: Итальянский 48.0KHz, AC-3, 6 ch, ~ 384Kbps avg[Оригинал]

Слоган: «Любви все возрасты покорны»

Трейлер к фильму

Общее
Полное имя: D:\загрузка\manuale_d'am3re_[tfile.ru]\VIDEO_TS\VTS_01_3.VOB
Формат: MPEG-PS
Размер файла: 1024 Мбайт
Продолжительность: 18 м.
Общий поток: 7677 Кбит/сек

Видео
Идентификатор: 224 (0xE0)
Формат: MPEG Video
Версия формата: Version 2
Профиль формата: Main@Main
Параметр BVOP формата: Да
Параметр матрицы формата: По умолчанию
Параметры GOP формата: M=3, N=12
Продолжительность: 18 м.
Вид битрейта: Переменный
Битрейт: 6564 Кбит/сек
Номинальный битрейт: 8500 Кбит/сек
Ширина: 720 пикс.
Высота: 576 пикс.
Соотношение сторон: 16:9
Частота кадров: 25,000 кадр/сек
Стандарт вещания: PAL
Цветовое пространство: YUV
Подвыборка цветности: 4:2:0
Битовая глубина: 8 бит
Тип развёртки: Чересстрочная
Порядок развёртки: Верхнее поле первое
Метод сжатия: С потерями
Бит/(Пиксели*Кадры): 0.633
Размер потока: 875 Мбайт (85%)

Аудио #1
Идентификатор: 189 (0xBD)-128 (0x80)
Формат: AC-3
Формат/Информация: Audio Coding 3
Расширение режима: CM (complete main)
Режим смешивания: DVD-Video
Продолжительность: 18 м.
Вид битрейта: Постоянный
Битрейт: 384 Кбит/сек
Каналы: 6 каналов
Расположение каналов: Front: L C R, Side: L R, LFE
Частота: 48,0 КГц
Битовая глубина: 16 бит
Метод сжатия: С потерями
Задержка видео: -288 мс.
Размер потока: 51,2 Мбайт (5%)

Аудио #2
Идентификатор: 189 (0xBD)-129 (0x81)
Формат: AC-3
Формат/Информация: Audio Coding 3
Расширение режима: CM (complete main)
Режим смешивания: DVD-Video
Продолжительность: 18 м.
Вид битрейта: Постоянный
Битрейт: 192 Кбит/сек
Каналы: 2 канала
Расположение каналов: Front: L R
Частота: 48,0 КГц
Битовая глубина: 16 бит
Метод сжатия: С потерями
Задержка видео: -256 мс.
Размер потока: 25,6 Мбайт (3%)

Аудио #3
Идентификатор: 189 (0xBD)-130 (0x82)
Формат: AC-3
Формат/Информация: Audio Coding 3
Расширение режима: CM (complete main)
Режим смешивания: DVD-Video
Продолжительность: 18 м.
Вид битрейта: Постоянный
Битрейт: 384 Кбит/сек
Каналы: 6 каналов
Расположение каналов: Front: L C R, Side: L R, LFE
Частота: 48,0 КГц
Битовая глубина: 16 бит
Метод сжатия: С потерями
Задержка видео: -288 мс.
Размер потока: 51,2 Мбайт (5%)

Текст
Идентификатор: 189 (0xBD)-32 (0x20)
Формат: RLE
Формат/Информация: Run-length encoding
Режим смешивания: DVD-Video
Продолжительность: 18 м.
Задержка видео: 680 мс.

Меню

Сценарий: Уго Кити, Джованни Веронези
Продюсер: Луиджи Де Лаурентиис мл., Аурелио Де Лаурентис, Маурицио Амати, ...
Оператор: Джованни Каневари
Сборы в России: $395 160
Зрители: Россия46.4 тыс.
Премьера (мир): 25 февраля 2011, ...
Премьера (РФ): 9 июня 2011, «Каравелла DDC»
Релиз на Blu-Ray: 6 июля 2011, «Кармен Видео», ...
Релиз на DVD: 6 июля 2011, «Кармен Видео», ...





















Поделиться:




реклама партнёра


Вернуться к началу
 Профиль Отправить личное сообщение  
 
   Похожие торренты   Автор   Торрент   Размер 
В этой теме нет новых непрочитанных сообщений. Вот так подружка / Una Donna per Amica (Джованни Веронези) [комедия, 2014] HDRip, mvo [Звук с TS]

Dracon

1613 | 101

1.36 ГБ

В этой теме нет новых непрочитанных сообщений. Вот так подружка / Una Donna per Amica (Джованни Веронези) [комедия, 2014] HDRip, mvo [чистый звук]

Dracon

5 | 2

1.46 ГБ

В этой теме нет новых непрочитанных сообщений. Вот так подружка / Una Donna per Amica (Джованни Веронези) [комедия, 2014] BDRip 1080p, mvo [Чистый звук]

Dracon

3 | 6

5.49 ГБ

В этой теме нет новых непрочитанных сообщений. Вот так подружка / Una Donna per Amica (Джованни Веронези) [комедия, 2014] BDRip 720p, mvo [Чистый звук]

Dracon

3 | 5

3.75 ГБ

В этой теме нет новых непрочитанных сообщений. Все в порядке, это любовь / Просто это любовь / Ничего страшного, это любовь / It's Okay It's Love [01-16 из 16](Ким Кю Тхэ)[2014, мелодрама, романтика, комедия, психология, HDTVRip 720р]

Nickolas3435

9 | 5

18.51 ГБ

В этой теме нет новых непрочитанных сообщений. Любовь в словах и картинах / Любовь в словах и картинках / Words and Pictures [драма, мелодрама, комедия, 2013] HDRip, Dub [НТВ]

Dracon

244 | 18

1.45 ГБ

В этой теме нет новых непрочитанных сообщений. Любовь есть любовь / Love is love / Wang fu cheng long (Томми Леунг Ка-Шу / Tommy Ga-shu Leung) [1990г., Китай, мелодрама, комедия, HDRip] VO

Alfredovich

6 | 5

1.46 ГБ


Начать новую тему Ответить на тему  [ 1 сообщение ] 




Для Мосгорсуда, Роскомнадзора и рекламодателей:: mosgorsud-torrent[собачка]yandex.ru