Торрент файл
скачать торрент магнет ссылка Добавлен: 07 янв 2012, 18:31
Размер: 4.63 ГБ
Сидеров: 1
Личеров: 4
Автор

СообщениеДобавлено: 07 янв 2012, 18:31 

Не в сети
Супермодератор
Аватара пользователя
Дата регистрации:
11 апр 2010, 18:10
Спасибо: 5960 / 7
Сообщения: 56765
Асфальтовые джунгли / The Asphalt Jungle


Перевод: Профессиональный (многоголосый, закадровый)
Субтитры:отсутствуют
Формат: DVD9, DVD Video, MPEG Video , AC3
Страна: США
Режиссер: Джон Хьюстон
Жанр: фильм-нуар, драма, криминал
Продолжительность: 01:52:04
Год выпуска: 1950
В ролях: Мэрилин Монро, Стерлинг Хейден, Брэд Декстер, Луи Кэлхерн, Тереза Челли, Марк Лоуренс

Описание: Знаменитый медвежатник Док Риденшнайдер выходит из тюрьмы с готовым блестящим планом многомиллионной кражи со взломом. Он набирает группу профессионалов, а реализовать товар планирует через вальяжного скупщика краденого Эммериха. Свои преступные дела тот успешно сочетает с охмурением молоденькой любовницы — которая ждет от него слишком многого.

Для каждого в бригаде это ограбление должно было стать рубежом, после которого началась бы новая, сладкая жизнь. Сначала все идет как по маслу, но трагическое стечение обстоятельств заставляет гангстеров бороться уже не за деньги, а за жизнь.


Рейтинг на IMDB: 8.0/10
Рейтинг КиноПоиск.RU: 7.590

Видео: 720х480 ( NTSC 4:3) MPEG Video, 25,000 fps, ~ 8500 kbps avg
Аудио: Русский 48 kHz, Dolby AC3, 2 ch, ~ 224 kbps avg Профессиональный (многоголосый, закадровый)


Общее
Полное имя : E:\Асфальтовые джунгли {The Asphalt Jungle} (1950) [DVD9]\VIDEO_TS\VTS_01_1.VOB
Формат : MPEG-PS
Размер файла : 1000 Мбайт
Продолжительность : 24 м.
Общий поток : 5734 Кбит/сек

Видео
Идентификатор : 224 (0xE0)
Формат : MPEG Video
Версия формата : Version 2
Профиль формата : Main@Main
Параметр BVOP формата : Да
Параметр матрицы формата : По умолчанию
Параметры GOP формата : M=3, N=12
Продолжительность : 24 м.
Вид битрейта : Переменный
Битрейт : 4724 Кбит/сек
Номинальный битрейт : 7500 Кбит/сек
Ширина : 720 пикс.
Высота : 480 пикс.
Соотношение сторон : 4:3
Частота кадров : 23,976 кадр/сек
Стандарт вещания : NTSC
Цветовое пространство : YUV
Подвыборка цветности : 4:2:0
Битовая глубина : 8 бит
Тип развёртки : Прогрессивная
Порядок развёртки : 2:3 Pulldown
Метод сжатия : С потерями
Бит/(Пиксели*Кадры) : 0.570
Размер потока : 824 Мбайт (82%)

Аудио #1
Идентификатор : 128 (0x80)
Формат : AC-3
Формат/Информация : Audio Coding 3
Расширение режима : CM (complete main)
Продолжительность : 24 м.
Вид битрейта : Постоянный
Битрейт : 448 Кбит/сек
Канал(ы) : 2 канала(ов)
Расположение каналов : Front: L R
Частота : 48,0 КГц
Битовая глубина : 16 бит
Метод сжатия : С потерями
Задержка видео : -83 мс.
Размер потока : 78,1 Мбайт (8%)

Аудио #2
Идентификатор : 129 (0x81)
Формат : AC-3
Формат/Информация : Audio Coding 3
Расширение режима : CM (complete main)
Продолжительность : 24 м.
Вид битрейта : Постоянный
Битрейт : 448 Кбит/сек
Канал(ы) : 2 канала(ов)
Расположение каналов : Front: L R
Частота : 48,0 КГц
Битовая глубина : 16 бит
Метод сжатия : С потерями
Задержка видео : -83 мс.
Размер потока : 78,1 Мбайт (8%)

Текст
Идентификатор : 224 (0xE0)-DVD-2
Формат : EIA-608
Режим смешивания : DVD-Video
Режим смешивания, доп. информаци : Muxed in Video #1
Размер потока : 0,00 байт (0%)








Поделиться:




реклама партнёра


Вернуться к началу
 Профиль Отправить личное сообщение  
 
   Похожие торренты   Автор   Торрент   Размер 
В этой теме нет новых непрочитанных сообщений. Из джунглей в джунгли / Jungle 2 Jungle [комедия, приключения, семейный, 1997] WEB-DLRip, Mvo

salma3

213 | 30

1.45 ГБ

В этой теме нет новых непрочитанных сообщений. Из джунглей в джунгли / Jungle 2 Jungle [комедия, приключения, семейный, 1997] WEBRip 720p, Mvo+Sub

salma3

52 | 20

4.37 ГБ

В этой теме нет новых непрочитанных сообщений. Кунг-фу джунгли / Последний из лучших / Kung Fu Jungle (Тэдди Чан) [боевик, 2014] BDRip, avo

Dracon

970 | 20

876.21 МБ

В этой теме нет новых непрочитанных сообщений. Дело Тельмы Джордон / The File on Thelma Jordon [драма, криминал, детектив, 1950] BDRip, Dvo

salma3

2 | 1

1.46 ГБ

В этой теме нет новых непрочитанных сообщений. В погоне за сокровищами / Aakhri Badla [боевик, драма, криминал, 1989] DVDRip, Dvo [Элегия фильм]

salma3

5 | 4

1.37 ГБ

В этой теме нет новых непрочитанных сообщений. Короткий фильм об убийстве / Krótki film o zabijaniu [драма, криминал, 1987] BDRemux 1080p, Dub+Mvo+Sub

salma3

5 | 21

23.1 ГБ

В этой теме нет новых непрочитанных сообщений. Книга джунглей / The Jungle Book [драма, фэнтези, приключения , 2016] BDRip, Dub [Лицензия]

salma3

288 | 7

1.46 ГБ


Начать новую тему Ответить на тему  [ 1 сообщение ] 




Для Мосгорсуда, Роскомнадзора и рекламодателей:: mosgorsud-torrent[собачка]yandex.ru