Торрент файл
скачать торрент магнет ссылка Добавлен: 07 янв 2012, 18:30
Размер: 6.2 ГБ
Сидеров: 0
Личеров: 5
Автор

СообщениеДобавлено: 07 янв 2012, 18:30 

Не в сети
Супермодератор
Аватара пользователя
Дата регистрации:
11 апр 2010, 18:10
Спасибо: 5801 / 7
Сообщения: 56779
Служители зла / The Evil Cult / Yi tian tu long ji: Zhi mo jiao jiao zhu


Перевод: Профессиональный (многоголосый, закадровый)
Субтитры:отсутствуют
Формат: DVD9, DVD Video, MPEG2, AC3
Страна: Гонконг
Режиссер: Вон Цзин, Саммо Хунг Кам-Бо
Жанр: фэнтези, боевик, история
Продолжительность: 01:38:45
Год выпуска: 1993
В ролях: Джет Ли, Mэн Чунг, Чингми Яу, Саммо Хунг Кам-Бо, Ричард ЭнДжи, Ка-Ян Леунг, Гиги Лаи, Колин Чоу, Френсис Нг, Экин Чэн

Описание: Эпоха великой династии Юэнь. Могущественные секты бесстрашных войнов и магов борются за обладание мечом То-Лун и саблей Йи -Тинь, ибо древняя легенда гласит: тот, кто станет их хозяином, будет править всем миром. Царство стонет от бессмысленных распрей и жестоких сражений, и вскоре становится ясно, что остановить кровопролитие сможет лишь бесстрашный юноша Мо Кей, поклявшийся отомстить за убитого отца вождям враждующих сект.

С помощью таинственной магии и секретных приемов восточных единоборств он покорит несокрушимые кланы и восстановит желанный мир на земле своих предков, став непобедимым мастером древних боевых искусств.


Рейтинг на IMDB: 6.2/10
Рейтинг КиноПоиск.RU: 7.590

Видео: 720х576 (PAL 16:9 ) MPEG-2 Video, 25,000 fps, ~ 9300 kbps avg
Аудио#1: Русский 48,0 kHz, AC3 6 ch, ~ 384 Kbps avg [Профессиональный (многоголосый, закадровый)]
Аудио#2: Китайский 48,0 kHz, AC3 6 ch, ~ 384 Kbps avg [Оригинал]


Общее
Полное имя: E:\EVIL_CULT\VIDEO_TS\VTS_02_1.VOB
Формат: MPEG-PS
Размер файла: 1024 Мбайт
Продолжительность: 17 м.
Общий поток: 8378 Кбит/сек

Видео
Идентификатор: 224 (0xE0)
Формат: MPEG Video
Версия формата: Version 2
Профиль формата: Main@Main
Параметр BVOP формата: Да
Параметр матрицы формата: По умолчанию
Продолжительность: 17 м.
Вид битрейта: Переменный
Битрейт: 7444 Кбит/сек
Номинальный битрейт: 9300 Кбит/сек
Ширина: 720 пикс.
Высота: 576 пикс.
Соотношение сторон: 16:9
Частота кадров: 25,000 кадр/сек
Стандарт вещания: PAL
Цветовое пространство: YUV
Подвыборка цветности: 4:2:0
Битовая глубина: 8 бит
Тип развёртки: Чересстрочная
Порядок развёртки: Верхнее поле первое
Метод сжатия: С потерями
Бит/(Пиксели*Кадры): 0.718
Размер потока: 909 Мбайт (89%)

Аудио #1
Идентификатор: 128 (0x80)
Формат: AC-3
Формат/Информация: Audio Coding 3
Расширение режима: CM (complete main)
Продолжительность: 17 м.
Вид битрейта: Постоянный
Битрейт: 384 Кбит/сек
Канал(ы): 6 канала(ов)
Расположение каналов: Front: L C R, Side: L R, LFE
Частота: 48,0 КГц
Битовая глубина: 16 бит
Метод сжатия: С потерями
Задержка видео: -80 мс.
Размер потока: 46,9 Мбайт (5%)

Аудио #2
Идентификатор: 129 (0x81)
Формат: AC-3
Формат/Информация: Audio Coding 3
Расширение режима: CM (complete main)
Продолжительность: 17 м.
Вид битрейта: Постоянный
Битрейт: 384 Кбит/сек
Канал(ы): 6 канала(ов)
Расположение каналов: Front: L C R, Side: L R, LFE
Частота: 48,0 КГц
Битовая глубина: 16 бит
Метод сжатия: С потерями
Задержка видео: -80 мс.
Размер потока: 46,9 Мбайт (5%)

Текст
Идентификатор: 32 (0x20)
Формат: RLE
Формат/Информация: Run-length encoding

Меню








Поделиться:




реклама партнёра


Вернуться к началу
 Профиль Отправить личное сообщение  
 
   Похожие торренты   Автор   Торрент   Размер 
В этой теме нет новых непрочитанных сообщений. Инструктор кунг-фу / The Kung-Fu Instructor / Jiao tou [Восточные единоборства, драма, 1979] BDRip 1080p, Avo+Sub

salma3

13 | 4

13.26 ГБ

В этой теме нет новых непрочитанных сообщений. Инструктор кунг-фу / The Kung-Fu Instructor / Jiao tou [Восточные единоборства, драма, 1979] BDRemux 1080p, Avo+Sub

salma3

8 | 2

28.16 ГБ

В этой теме нет новых непрочитанных сообщений. Мастер / Long hang tian xia [Боевик, боевые искусства, 1992] BDRip 1080p, Avo

salma3

64 | 7

5.98 ГБ

В этой теме нет новых непрочитанных сообщений. The Cult - Beyond Good and Evil [2001, Hard Rock, MP3]

PriZraK

0 | 1

116.97 МБ

В этой теме нет новых непрочитанных сообщений. Из Вегаса в Макао / Ao Men feng yun (Цзин Вон) [2014, комедия, боевик, HDRip] avo

Nickolas3435

541 | 37

1.37 ГБ

В этой теме нет новых непрочитанных сообщений. Из Вегаса в Макао 2 / Ao Men feng yun 2 (Цзин Вон) [Боевик, комедия, 2014] BDRip 720p, avo

Dracon

1 | 0

4.44 ГБ

В этой теме нет новых непрочитанных сообщений. Мы вернулись! История динозавра / We're Back! A Dinosaur's Story [мультфильм, фэнтези, приключения, семейный, 1993] BDRip 720p, Mvo

salma3

21 | 10

7.62 ГБ


Начать новую тему Ответить на тему  [ 1 сообщение ] 




Для Мосгорсуда, Роскомнадзора и рекламодателей:: mosgorsud-torrent[собачка]yandex.ru