Торрент файл
скачать торрент магнет ссылка Добавлен: 07 янв 2012, 18:29
Размер: 5.72 ГБ
Сидеров: 0
Личеров: 4
Автор

СообщениеДобавлено: 07 янв 2012, 18:29 

Не в сети
Супермодератор
Аватара пользователя
Дата регистрации:
11 апр 2010, 18:10
Спасибо: 5802 / 7
Сообщения: 56779
Время собирать камни


Перевод: Не требуется
Субтитры:Отсутствуют
Формат: DVD9, DVD Video, MPEG2, AC3
Режиссер: Алексей Карелин
Жанр: военный
Продолжительность: 01:33:00
Год выпуска: 2005

В ролях: Давид Кристиан Буннерс, Андрей Федорцов, Ольга Красько, Владимир Меньшов, Владимир Вдовиченков, Владимир Качан, Евдокия Германова, Василий Мищенко, Александр Лыков, Федор Добронравов

Описание: Май 1945 года. Немецкий минер, офицер Рудольф Онезорг, раскаявшись в преступлениях, совершенных во время второй мировой войны на территории СССР, решает вернуться в места, где воевал. Он хочет собственноручно обезвредить расставленные на гражданских объектах мины.
Связной между Онезоргом и капитаном Деминым становится переводчица Неля, еще нe оправившаяся после пережитых ужасов блокады и фронта. Эти трое пытаются делать первые шаги навстречу мирной жизни…


Рейтинг на IMDB: 6.3/10
Рейтинг на Кинопоиск.RU: 7.648

Видео: 720x576 (PAL 4:3), MPEG Video Version 2, 25.000 fps, ~8 000 kbps avg
Аудио:Русский 48.0 KHz, AC-3, 2 ch (L R), 448 Kbps avg

General
Complete name: D:\фильмы\vremya_sobirat_kamni\VIDEO_TS\VIDEO_TS.BUP
Format: DVD Video
Format profile: Menu
File size: 22.0 KiB

Video
ID: 224 (0xE0)
Format: MPEG Video
Format version: Version 2
Bit rate mode: Variable
Width: 720 pixels
Height: 576 pixels
Display aspect ratio: 4:3
Frame rate: 25.000 fps
Standard: PAL
Compression mode: Lossy

Text
Format: RLE
Format/Info: Run-length encoding
Bit depth: 2 bits

General
Complete name: D:\фильмы\vremya_sobirat_kamni\VIDEO_TS\VIDEO_TS.IFO
Format: DVD Video
Format profile: Menu
File size: 22.0 KiB

Video
ID: 224 (0xE0)
Format: MPEG Video
Format version: Version 2
Bit rate mode: Variable
Width: 720 pixels
Height: 576 pixels
Display aspect ratio: 4:3
Frame rate: 25.000 fps
Standard: PAL
Compression mode: Lossy

Text
Format: RLE
Format/Info: Run-length encoding
Bit depth: 2 bits

General
Complete name: D:\фильмы\vremya_sobirat_kamni\VIDEO_TS\VIDEO_TS.VOB
Format: MPEG-PS
File size: 320 KiB
Duration: 40ms
Overall bit rate: 65.5 Mbps

Video
ID: 224 (0xE0)
Format: MPEG Video
Format version: Version 2
Format profile: Main@Main
Format settings, BVOP: No
Format settings, Matrix: Default
Format settings, GOP: N=1
Duration: 40ms
Bit rate mode: Constant
Bit rate: 9 000 Kbps
Width: 720 pixels
Height: 576 pixels
Display aspect ratio: 4:3
Frame rate: 25.000 fps
Standard: PAL
Color space: YUV
Chroma subsampling: 4:2:0
Bit depth: 8 bits
Scan type: Progressive
Scan order: Top Field First
Compression mode: Lossy
Bits/(Pixel*Frame): 0.868
Stream size: 43.9 KiB (14%)

Menu

General
Complete name: D:\фильмы\vremya_sobirat_kamni\VIDEO_TS\VTS_01_0.BUP
Format: DVD Video
Format profile: Program
File size: 18.0 KiB
Duration: 5s 400ms
Overall bit rate: 27.3 Kbps

Video
ID: 224 (0xE0)
Format: MPEG Video
Format version: Version 2
Duration: 5s 400ms
Bit rate mode: Variable
Width: 720 pixels
Height: 576 pixels
Display aspect ratio: 4:3
Frame rate: 25.000 fps
Standard: PAL
Compression mode: Lossy

Audio
ID: 128 (0x80)
Format: AC-3
Format/Info: Audio Coding 3
Duration: 5s 400ms
Channel(s): 2 channels
Sampling rate: 48.0 KHz
Compression mode: Lossy
Language: Russian

Menu
Duration: 5s 400ms
00:00:00.000: Chapter 1
List (Audio): 0

General
Complete name: D:\фильмы\vremya_sobirat_kamni\VIDEO_TS\VTS_01_0.IFO
Format: DVD Video
Format profile: Program
File size: 18.0 KiB
Duration: 5s 400ms
Overall bit rate: 27.3 Kbps

Video
ID: 224 (0xE0)
Format: MPEG Video
Format version: Version 2
Duration: 5s 400ms
Bit rate mode: Variable
Width: 720 pixels
Height: 576 pixels
Display aspect ratio: 4:3
Frame rate: 25.000 fps
Standard: PAL
Compression mode: Lossy

Audio
ID: 128 (0x80)
Format: AC-3
Format/Info: Audio Coding 3
Duration: 5s 400ms
Channel(s): 2 channels
Sampling rate: 48.0 KHz
Compression mode: Lossy
Language: Russian

Menu
Duration: 5s 400ms
00:00:00.000: Chapter 1
List (Audio): 0

General
Complete name: D:\фильмы\vremya_sobirat_kamni\VIDEO_TS\VTS_01_0.VOB
Format: MPEG-PS
File size: 252 KiB
Duration: 203ms
Overall bit rate: 10.2 Mbps

Video
ID: 224 (0xE0)
Format: MPEG Video
Format version: Version 2
Format profile: Main@Main
Format settings, BVOP: No
Format settings, Matrix: Default
Format settings, GOP: N=1
Duration: 203ms
Bit rate mode: Constant
Bit rate: 9 000 Kbps
Width: 720 pixels
Height: 576 pixels
Display aspect ratio: 4:3
Frame rate: 25.000 fps
Standard: PAL
Color space: YUV
Chroma subsampling: 4:2:0
Bit depth: 8 bits
Scan type: Progressive
Scan order: Top Field First
Compression mode: Lossy
Bits/(Pixel*Frame): 0.868
Stream size: 223 KiB (89%)

Text
ID: 32 (0x20)
Format: RLE
Format/Info: Run-length encoding
Delay relative to video: 163ms

Menu

General
Complete name: D:\фильмы\vremya_sobirat_kamni\VIDEO_TS\VTS_01_1.VOB
Format: MPEG-PS
File size: 5.25 MiB
Duration: 5s 400ms
Overall bit rate: 8 153 Kbps

Video
ID: 224 (0xE0)
Format: MPEG Video
Format version: Version 2
Format profile: Main@Main
Format settings, BVOP: Yes
Format settings, Matrix: Default
Format settings, GOP: M=3, N=12
Duration: 5s 400ms
Bit rate mode: Constant
Bit rate: 8 000 Kbps
Width: 720 pixels
Height: 576 pixels
Display aspect ratio: 4:3
Frame rate: 25.000 fps
Standard: PAL
Color space: YUV
Chroma subsampling: 4:2:0
Bit depth: 8 bits
Scan type: Interlaced
Scan order: Bottom Field First
Compression mode: Lossy
Bits/(Pixel*Frame): 0.772
Stream size: 5.06 MiB (96%)

Audio
ID: 128 (0x80)
Format: AC-3
Format/Info: Audio Coding 3
Mode extension: CM (complete main)
Duration: 5s 400ms
Bit rate mode: Constant
Bit rate: 128 Kbps
Channel(s): 2 channels
Channel positions: Front: L R
Sampling rate: 48.0 KHz
Bit depth: 16 bits
Compression mode: Lossy
Stream size: 84.4 KiB (2%)

Menu

General
Complete name: D:\фильмы\vremya_sobirat_kamni\VIDEO_TS\VTS_02_0.BUP
Format: DVD Video
Format profile: Program
File size: 18.0 KiB
Duration: 10s 0ms
Overall bit rate: 14.7 Kbps

Video
ID: 224 (0xE0)
Format: MPEG Video
Format version: Version 2
Duration: 10s 0ms
Bit rate mode: Variable
Width: 720 pixels
Height: 576 pixels
Display aspect ratio: 4:3
Frame rate: 25.000 fps
Standard: PAL
Compression mode: Lossy

Audio
ID: 128 (0x80)
Format: AC-3
Format/Info: Audio Coding 3
Duration: 10s 0ms
Channel(s): 2 channels
Sampling rate: 48.0 KHz
Compression mode: Lossy
Language: Russian

Menu
Duration: 10s 0ms
00:00:00.000: Chapter 1
List (Audio): 0

General
Complete name: D:\фильмы\vremya_sobirat_kamni\VIDEO_TS\VTS_02_0.IFO
Format: DVD Video
Format profile: Program
File size: 18.0 KiB
Duration: 10s 0ms
Overall bit rate: 14.7 Kbps

Video
ID: 224 (0xE0)
Format: MPEG Video
Format version: Version 2
Duration: 10s 0ms
Bit rate mode: Variable
Width: 720 pixels
Height: 576 pixels
Display aspect ratio: 4:3
Frame rate: 25.000 fps
Standard: PAL
Compression mode: Lossy

Audio
ID: 128 (0x80)
Format: AC-3
Format/Info: Audio Coding 3
Duration: 10s 0ms
Channel(s): 2 channels
Sampling rate: 48.0 KHz
Compression mode: Lossy
Language: Russian

Menu
Duration: 10s 0ms
00:00:00.000: Chapter 1
List (Audio): 0

General
Complete name: D:\фильмы\vremya_sobirat_kamni\VIDEO_TS\VTS_02_0.VOB
Format: MPEG-PS
File size: 20.0 KiB
Duration: 40ms
Overall bit rate: 4 096 Kbps

Video
ID: 224 (0xE0)
Format: MPEG Video
Format version: Version 2
Format profile: Main@Main
Format settings, BVOP: No
Format settings, Matrix: Default
Format settings, GOP: N=1
Duration: 40ms
Bit rate mode: Constant
Bit rate: 9 000 Kbps
Width: 720 pixels
Height: 576 pixels
Display aspect ratio: 4:3
Frame rate: 25.000 fps
Standard: PAL
Color space: YUV
Chroma subsampling: 4:2:0
Bit depth: 8 bits
Scan type: Progressive
Scan order: Top Field First
Compression mode: Lossy
Bits/(Pixel*Frame): 0.868
Stream size: 43.9 KiB

Menu

General
Complete name: D:\фильмы\vremya_sobirat_kamni\VIDEO_TS\VTS_02_1.VOB
Format: MPEG-PS
File size: 9.91 MiB
Duration: 10s 0ms
Overall bit rate: 8 317 Kbps

Video
ID: 224 (0xE0)
Format: MPEG Video
Format version: Version 2
Format profile: Main@Main
Format settings, BVOP: Yes
Format settings, Matrix: Default
Duration: 10s 0ms
Bit rate mode: Constant
Bit rate: 8 000 Kbps
Width: 720 pixels
Height: 576 pixels
Display aspect ratio: 4:3
Frame rate: 25.000 fps
Standard: PAL
Color space: YUV
Chroma subsampling: 4:2:0
Bit depth: 8 bits
Scan type: Interlaced
Scan order: Bottom Field First
Compression mode: Lossy
Bits/(Pixel*Frame): 0.772
Stream size: 9.49 MiB (96%)

Audio
ID: 128 (0x80)
Format: AC-3
Format/Info: Audio Coding 3
Mode extension: CM (complete main)
Duration: 9s 952ms
Bit rate mode: Constant
Bit rate: 192 Kbps
Channel(s): 2 channels
Channel positions: Front: L R
Sampling rate: 48.0 KHz
Bit depth: 16 bits
Compression mode: Lossy
Stream size: 233 KiB (2%)

Menu

General
Complete name: D:\фильмы\vremya_sobirat_kamni\VIDEO_TS\VTS_03_0.BUP
Format: DVD Video
Format profile: Program
File size: 20.0 KiB
Duration: 15s 400ms
Overall bit rate: 10.6 Kbps

Video
ID: 224 (0xE0)
Format: MPEG Video
Format version: Version 2
Duration: 15s 400ms
Bit rate mode: Variable
Width: 720 pixels
Height: 576 pixels
Display aspect ratio: 4:3
Frame rate: 25.000 fps
Standard: PAL
Compression mode: Lossy

Audio
ID: 128 (0x80)
Format: AC-3
Format/Info: Audio Coding 3
Duration: 15s 400ms
Channel(s): 2 channels
Sampling rate: 48.0 KHz
Compression mode: Lossy
Language: Russian

Menu
Duration: 15s 400ms
00:00:00.000: Chapter 1
List (Audio): 0

General
Complete name: D:\фильмы\vremya_sobirat_kamni\VIDEO_TS\VTS_03_0.IFO
Format: DVD Video
Format profile: Program
File size: 20.0 KiB
Duration: 15s 400ms
Overall bit rate: 10.6 Kbps

Video
ID: 224 (0xE0)
Format: MPEG Video
Format version: Version 2
Duration: 15s 400ms
Bit rate mode: Variable
Width: 720 pixels
Height: 576 pixels
Display aspect ratio: 4:3
Frame rate: 25.000 fps
Standard: PAL
Compression mode: Lossy

Audio
ID: 128 (0x80)
Format: AC-3
Format/Info: Audio Coding 3
Duration: 15s 400ms
Channel(s): 2 channels
Sampling rate: 48.0 KHz
Compression mode: Lossy
Language: Russian

Menu
Duration: 15s 400ms
00:00:00.000: Chapter 1
List (Audio): 0

General
Complete name: D:\фильмы\vremya_sobirat_kamni\VIDEO_TS\VTS_03_0.VOB
Format: MPEG-PS
File size: 119 MiB
Duration: 30s 80ms
Overall bit rate: 33.2 Mbps

Video
ID: 224 (0xE0)
Format: MPEG Video
Format version: Version 2
Format profile: Main@Main
Format settings, BVOP: Yes
Format settings, Matrix: Default
Duration: 30s 80ms
Bit rate mode: Constant
Bit rate: 32.4 Mbps
Width: 720 pixels
Height: 576 pixels
Display aspect ratio: 4:3
Frame rate: 25.000 fps
Standard: PAL
Color space: YUV
Chroma subsampling: 4:2:0
Bit depth: 8 bits
Compression mode: Lossy
Bits/(Pixel*Frame): 3.123
Stream size: 116 MiB (97%)

Audio
ID: 128 (0x80)
Format: AC-3
Format/Info: Audio Coding 3
Mode extension: CM (complete main)
Duration: 30s 29ms
Bit rate mode: Constant
Bit rate: 192 Kbps
Channel(s): 2 channels
Channel positions: Front: L R
Sampling rate: 48.0 KHz
Bit depth: 16 bits
Compression mode: Lossy
Delay relative to video: 99ms
Stream size: 704 KiB (1%)

Text
ID: 32 (0x20)
Format: RLE
Format/Info: Run-length encoding
Delay relative to video: 99ms

Menu

General
Complete name: D:\фильмы\vremya_sobirat_kamni\VIDEO_TS\VTS_03_1.VOB
Format: MPEG-PS
File size: 14.9 MiB
Duration: 15s 40ms
Overall bit rate: 8 292 Kbps

Video
ID: 224 (0xE0)
Format: MPEG Video
Format version: Version 2
Format profile: Main@Main
Format settings, BVOP: Yes
Format settings, Matrix: Default
Format settings, GOP: M=3, N=12
Duration: 15s 0ms
Bit rate mode: Constant
Bit rate: 8 000 Kbps
Width: 720 pixels
Height: 576 pixels
Display aspect ratio: 4:3
Frame rate: 25.000 fps
Standard: PAL
Color space: YUV
Chroma subsampling: 4:2:0
Bit depth: 8 bits
Scan type: Interlaced
Scan order: Bottom Field First
Compression mode: Lossy
Bits/(Pixel*Frame): 0.772
Stream size: 14.2 MiB (95%)

Audio
ID: 128 (0x80)
Format: AC-3
Format/Info: Audio Coding 3
Mode extension: CM (complete main)
Duration: 15s 40ms
Bit rate mode: Constant
Bit rate: 192 Kbps
Channel(s): 2 channels
Channel positions: Front: L R
Sampling rate: 48.0 KHz
Bit depth: 16 bits
Compression mode: Lossy
Stream size: 353 KiB (2%)

Menu

General
Complete name: D:\фильмы\vremya_sobirat_kamni\VIDEO_TS\VTS_04_0.BUP
Format: DVD Video
Format profile: Program
File size: 46.0 KiB
Duration: 1h 33mn
Overall bit rate: 67 bps

Video
ID: 224 (0xE0)
Format: MPEG Video
Format version: Version 2
Duration: 1h 33mn
Bit rate mode: Variable
Width: 720 pixels
Height: 576 pixels
Display aspect ratio: 4:3
Frame rate: 25.000 fps
Standard: PAL
Compression mode: Lossy

Audio
ID: 128 (0x80)
Format: AC-3
Format/Info: Audio Coding 3
Duration: 1h 33mn
Channel(s): 2 channels
Sampling rate: 48.0 KHz
Compression mode: Lossy
Language: Russian

Text
ID: 32 (0x20)
Format: RLE
Format/Info: Run-length encoding
Bit depth: 2 bits
Language: Russian

Menu
Duration: 1h 33mn
00:00:00.000: Chapter 1
00:05:26.440: Chapter 2
00:10:33.400: Chapter 3
00:13:30.160: Chapter 4
00:19:31.240: Chapter 5
00:23:05.320: Chapter 6
00:28:06.280: Chapter 7
00:30:56.560: Chapter 8
00:38:58.600: Chapter 9
00:42:47.800: Chapter 10
00:51:06.880: Chapter 11
00:59:07.240: Chapter 12
01:02:09.160: Chapter 13
01:08:46.960: Chapter 14
01:16:31.000: Chapter 15
01:20:08.560: Chapter 16
01:26:06.640: Chapter 17
01:31:40.000: Chapter 18
01:32:57.880: Chapter 19
List (Audio): 0
List (Subtitles 4/3): 0
List (Subtitles Wide): 0
List (Subtitles Letterbox): 0
List (Subtitles Pan&Scan): 0

General
Complete name: D:\фильмы\vremya_sobirat_kamni\VIDEO_TS\VTS_04_0.IFO
Format: DVD Video
Format profile: Program
File size: 46.0 KiB
Duration: 1h 33mn
Overall bit rate: 67 bps

Video
ID: 224 (0xE0)
Format: MPEG Video
Format version: Version 2
Duration: 1h 33mn
Bit rate mode: Variable
Width: 720 pixels
Height: 576 pixels
Display aspect ratio: 4:3
Frame rate: 25.000 fps
Standard: PAL
Compression mode: Lossy

Audio
ID: 128 (0x80)
Format: AC-3
Format/Info: Audio Coding 3
Duration: 1h 33mn
Channel(s): 2 channels
Sampling rate: 48.0 KHz
Compression mode: Lossy
Language: Russian

Text
ID: 32 (0x20)
Format: RLE
Format/Info: Run-length encoding
Bit depth: 2 bits
Language: Russian

Menu
Duration: 1h 33mn
00:00:00.000: Chapter 1
00:05:26.440: Chapter 2
00:10:33.400: Chapter 3
00:13:30.160: Chapter 4
00:19:31.240: Chapter 5
00:23:05.320: Chapter 6
00:28:06.280: Chapter 7
00:30:56.560: Chapter 8
00:38:58.600: Chapter 9
00:42:47.800: Chapter 10
00:51:06.880: Chapter 11
00:59:07.240: Chapter 12
01:02:09.160: Chapter 13
01:08:46.960: Chapter 14
01:16:31.000: Chapter 15
01:20:08.560: Chapter 16
01:26:06.640: Chapter 17
01:31:40.000: Chapter 18
01:32:57.880: Chapter 19
List (Audio): 0
List (Subtitles 4/3): 0
List (Subtitles Wide): 0
List (Subtitles Letterbox): 0
List (Subtitles Pan&Scan): 0

General
Complete name: D:\фильмы\vremya_sobirat_kamni\VIDEO_TS\VTS_04_0.VOB
Format: MPEG-PS
File size: 20.0 KiB
Duration: 40ms
Overall bit rate: 4 096 Kbps

Video
ID: 224 (0xE0)
Format: MPEG Video
Format version: Version 2
Format profile: Main@Main
Format settings, BVOP: No
Format settings, Matrix: Default
Format settings, GOP: N=1
Duration: 40ms
Bit rate mode: Constant
Bit rate: 9 000 Kbps
Width: 720 pixels
Height: 576 pixels
Display aspect ratio: 4:3
Frame rate: 25.000 fps
Standard: PAL
Color space: YUV
Chroma subsampling: 4:2:0
Bit depth: 8 bits
Scan type: Progressive
Scan order: Top Field First
Compression mode: Lossy
Bits/(Pixel*Frame): 0.868
Stream size: 43.9 KiB

Menu

General
Complete name: D:\фильмы\vremya_sobirat_kamni\VIDEO_TS\VTS_04_1.VOB
Format: MPEG-PS
File size: 1 024 MiB
Duration: 16mn 41s
Overall bit rate: 8 578 Kbps

Video
ID: 224 (0xE0)
Format: MPEG Video
Format version: Version 2
Format profile: Main@Main
Format settings, BVOP: Yes
Format settings, Matrix: Default
Duration: 16mn 41s
Bit rate mode: Constant
Bit rate: 8 000 Kbps
Width: 720 pixels
Height: 576 pixels
Display aspect ratio: 4:3
Frame rate: 25.000 fps
Standard: PAL
Color space: YUV
Chroma subsampling: 4:2:0
Bit depth: 8 bits
Scan type: Interlaced
Scan order: Top Field First
Compression mode: Lossy
Bits/(Pixel*Frame): 0.772
Stream size: 950 MiB (93%)

Audio
ID: 128 (0x80)
Format: AC-3
Format/Info: Audio Coding 3
Mode extension: CM (complete main)
Duration: 16mn 41s
Bit rate mode: Constant
Bit rate: 448 Kbps
Channel(s): 2 channels
Channel positions: Front: L R
Sampling rate: 48.0 KHz
Bit depth: 16 bits
Compression mode: Lossy
Stream size: 53.5 MiB (5%)

Menu

General
Complete name: D:\фильмы\vremya_sobirat_kamni\VIDEO_TS\VTS_04_2.VOB
Format: MPEG-PS
File size: 1 024 MiB
Duration: 16mn 41s
Overall bit rate: 8 578 Kbps

Video
ID: 224 (0xE0)
Format: MPEG Video
Format version: Version 2
Format profile: Main@Main
Format settings, BVOP: Yes
Format settings, Matrix: Default
Format settings, GOP: M=3, N=12
Duration: 16mn 41s
Bit rate mode: Constant
Bit rate: 8 000 Kbps
Width: 720 pixels
Height: 576 pixels
Display aspect ratio: 4:3
Frame rate: 25.000 fps
Standard: PAL
Color space: YUV
Chroma subsampling: 4:2:0
Bit depth: 8 bits
Scan type: Interlaced
Scan order: Top Field First
Compression mode: Lossy
Bits/(Pixel*Frame): 0.772
Stream size: 950 MiB (93%)

Audio
ID: 128 (0x80)
Format: AC-3
Format/Info: Audio Coding 3
Mode extension: CM (complete main)
Duration: 16mn 41s
Bit rate mode: Constant
Bit rate: 448 Kbps
Channel(s): 2 channels
Channel positions: Front: L R
Sampling rate: 48.0 KHz
Bit depth: 16 bits
Compression mode: Lossy
Delay relative to video: -480ms
Stream size: 53.5 MiB (5%)

Menu

General
Complete name: D:\фильмы\vremya_sobirat_kamni\VIDEO_TS\VTS_04_3.VOB
Format: MPEG-PS
File size: 1 024 MiB
Duration: 16mn 41s
Overall bit rate: 8 577 Kbps

Video
ID: 224 (0xE0)
Format: MPEG Video
Format version: Version 2
Format profile: Main@Main
Format settings, BVOP: Yes
Format settings, Matrix: Default
Format settings, GOP: M=3, N=12
Duration: 16mn 41s
Bit rate mode: Constant
Bit rate: 8 000 Kbps
Width: 720 pixels
Height: 576 pixels
Display aspect ratio: 4:3
Frame rate: 25.000 fps
Standard: PAL
Color space: YUV
Chroma subsampling: 4:2:0
Bit depth: 8 bits
Scan type: Interlaced
Scan order: Top Field First
Compression mode: Lossy
Bits/(Pixel*Frame): 0.772
Stream size: 950 MiB (93%)

Audio
ID: 128 (0x80)
Format: AC-3
Format/Info: Audio Coding 3
Mode extension: CM (complete main)
Duration: 16mn 41s
Bit rate mode: Constant
Bit rate: 448 Kbps
Channel(s): 2 channels
Channel positions: Front: L R
Sampling rate: 48.0 KHz
Bit depth: 16 bits
Compression mode: Lossy
Delay relative to video: -200ms
Stream size: 53.5 MiB (5%)

Text
ID: 32 (0x20)
Format: RLE
Format/Info: Run-length encoding
Duration: 16mn 39s
Delay relative to video: 960ms

Menu

General
Complete name: D:\фильмы\vremya_sobirat_kamni\VIDEO_TS\VTS_04_4.VOB
Format: MPEG-PS
File size: 1 024 MiB
Duration: 16mn 41s
Overall bit rate: 8 580 Kbps

Video
ID: 224 (0xE0)
Format: MPEG Video
Format version: Version 2
Format profile: Main@Main
Format settings, BVOP: Yes
Format settings, Matrix: Default
Format settings, GOP: M=3, N=12
Duration: 16mn 41s
Bit rate mode: Constant
Bit rate: 8 000 Kbps
Width: 720 pixels
Height: 576 pixels
Display aspect ratio: 4:3
Frame rate: 25.000 fps
Standard: PAL
Color space: YUV
Chroma subsampling: 4:2:0
Bit depth: 8 bits
Scan type: Interlaced
Scan order: Top Field First
Compression mode: Lossy
Bits/(Pixel*Frame): 0.772
Stream size: 950 MiB (93%)

Audio
ID: 128 (0x80)
Format: AC-3
Format/Info: Audio Coding 3
Mode extension: CM (complete main)
Duration: 16mn 41s
Bit rate mode: Constant
Bit rate: 448 Kbps
Channel(s): 2 channels
Channel positions: Front: L R
Sampling rate: 48.0 KHz
Bit depth: 16 bits
Compression mode: Lossy
Delay relative to video: -488ms
Stream size: 53.5 MiB (5%)

Text
ID: 32 (0x20)
Format: RLE
Format/Info: Run-length encoding
Delay relative to video: 720ms

Menu

General
Complete name: D:\фильмы\vremya_sobirat_kamni\VIDEO_TS\VTS_04_5.VOB
Format: MPEG-PS
File size: 1 024 MiB
Duration: 16mn 41s
Overall bit rate: 8 577 Kbps

Video
ID: 224 (0xE0)
Format: MPEG Video
Format version: Version 2
Format profile: Main@Main
Format settings, BVOP: Yes
Format settings, Matrix: Default
Format settings, GOP: M=3, N=12
Duration: 16mn 41s
Bit rate mode: Constant
Bit rate: 8 000 Kbps
Width: 720 pixels
Height: 576 pixels
Display aspect ratio: 4:3
Frame rate: 25.000 fps
Standard: PAL
Color space: YUV
Chroma subsampling: 4:2:0
Bit depth: 8 bits
Scan type: Interlaced
Scan order: Top Field First
Compression mode: Lossy
Bits/(Pixel*Frame): 0.772
Stream size: 950 MiB (93%)

Audio
ID: 128 (0x80)
Format: AC-3
Format/Info: Audio Coding 3
Mode extension: CM (complete main)
Duration: 16mn 41s
Bit rate mode: Constant
Bit rate: 448 Kbps
Channel(s): 2 channels
Channel positions: Front: L R
Sampling rate: 48.0 KHz
Bit depth: 16 bits
Compression mode: Lossy
Delay relative to video: -480ms
Stream size: 53.5 MiB (5%)

Text
ID: 32 (0x20)
Format: RLE
Format/Info: Run-length encoding
Duration: 16mn 38s
Delay relative to video: 240ms

Menu

General
Complete name: D:\фильмы\vremya_sobirat_kamni\VIDEO_TS\VTS_04_6.VOB
Format: MPEG-PS
File size: 586 MiB
Duration: 9mn 32s
Overall bit rate: 8 577 Kbps

Video
ID: 224 (0xE0)
Format: MPEG Video
Format version: Version 2
Format profile: Main@Main
Format settings, BVOP: Yes
Format settings, Matrix: Default
Format settings, GOP: M=3, N=12
Duration: 9mn 32s
Bit rate mode: Constant
Bit rate: 8 000 Kbps
Width: 720 pixels
Height: 576 pixels
Display aspect ratio: 4:3
Frame rate: 25.000 fps
Standard: PAL
Color space: YUV
Chroma subsampling: 4:2:0
Bit depth: 8 bits
Scan type: Interlaced
Scan order: Top Field First
Compression mode: Lossy
Bits/(Pixel*Frame): 0.772
Stream size: 543 MiB (93%)

Audio
ID: 128 (0x80)
Format: AC-3
Format/Info: Audio Coding 3
Mode extension: CM (complete main)
Duration: 9mn 32s
Bit rate mode: Constant
Bit rate: 448 Kbps
Channel(s): 2 channels
Channel positions: Front: L R
Sampling rate: 48.0 KHz
Bit depth: 16 bits
Compression mode: Lossy
Delay relative to video: -256ms
Stream size: 30.6 MiB (5%)

Menu









Поделиться:




реклама партнёра


Вернуться к началу
 Профиль Отправить личное сообщение  
 
   Похожие торренты   Автор   Торрент   Размер 
В этой теме нет новых непрочитанных сообщений. Будущее совершенное (Алексей Карелин) [Мелодрама, 2015] HDTVRip

Dracon

1184 | 46

1.37 ГБ

В этой теме нет новых непрочитанных сообщений. Чужое лицо (Алексей Карелин) [Мелодрама, 2015] HDTVRip

Dracon

3525 | 917

1.37 ГБ

В этой теме нет новых непрочитанных сообщений. Вместо нее [Серия 1-8 из 8] (Алексей Карелин) [Мелодрама, 2015] SATRip

Dracon

507 | 135

4.94 ГБ

В этой теме нет новых непрочитанных сообщений. Весомое чувство (Алексей Карелин) [Мелодрама, 2015] SATRip

Dracon

965 | 33

1.21 ГБ

В этой теме нет новых непрочитанных сообщений. Будущее совершенное (Алексей Карелин) [Мелодрама, 2015] HDTV 1080i

Dracon

149 | 14

5.4 ГБ

В этой теме нет новых непрочитанных сообщений. Алла в поисках Аллы (Алексей Карелин) [Мелодрама, 2015] SATRip

Dracon

35 | 3

1.25 ГБ

В этой теме нет новых непрочитанных сообщений. Будущее совершенное (Алексей Карелин) [Мелодрама, 2015] HDTVRip 720p

Dracon

281 | 20

2.43 ГБ


Начать новую тему Ответить на тему  [ 1 сообщение ] 




Для Мосгорсуда, Роскомнадзора и рекламодателей:: mosgorsud-torrent[собачка]yandex.ru