Торрент файл
скачать торрент магнет ссылка Добавлен: 07 янв 2012, 18:29
Размер: 7.82 ГБ
Сидеров: 6
Личеров: 8
Автор

СообщениеДобавлено: 07 янв 2012, 18:29 

Не в сети
Супермодератор
Аватара пользователя
Дата регистрации:
11 апр 2010, 18:10
Спасибо: 5802 / 7
Сообщения: 56779
Азазель (3 из 3 серий )

Перевод: Не требуется
Субтитры: отсутствуют
Формат: DVD9, DVD Video, MPEG2, AC3
Страна: Россия
Режиссер: Александр Адабашьян
Жанр: детектив, драма
Продолжительность: 02:27:01+00:51:58
Год выпуска: 2003

В ролях: Сергей Безруков, Сергей Чонишвили, Лариса Борушко, Марина Александрова, Ева Шикульска, Кирилл Пирогов, Марина Неелова, Вячеслав Жолобов, Олег Лопухов, Илья Носков, Наталья Житкова, Иван Моховиков

Описание: Экранизация одноименного романа известного литератора и переводчика Бориса Акунина. Действие происходит в 1876 году в Москве. Эраст Петрович Фандорин, чиновник 14 класса, служит письмоводителем в Сыскном управлении и мечтает стать великим сыщиком. Неожиданно ему предоставляется такая возможность. В Александровском саду, на глазах у изумленной публики застрелился студент Московского университета и единственный наследник миллионного состояния своего отца Петр Кокорин.
Фандорина посылают в Городскую часть справиться о подробностях происшествия. Взявшись за дело, юный сыщик обнаруживает странную предсмертную записку, а затем и завещание Кокорина. В нем застрелившийся студент отписывает все свое состояние баронессе Эстер на нужды образования и воспитания сирот, а душеприказчиком назначает некоего Ахтырцева. Заинтересовавшись этим странным делом, Фандорин начинает самостоятельное расследование. Теперь ему предстоит рыскрыть тайну целой череды самоубийств членов группы "Азазель".
По мере уточнения обстоятельств этого дела, юный Фандорин выходит на след некой организации, члены которой занимают важнейшие государственные посты в разных странах и влияют на мировую политику, экономику и культуру.


Рейтинг на IMDB: 6.4/10
Рейтинг на Кинопоиск.RU: 7.164

Видео: 720x576 (PAL 4:3), MPEG-2 Video, 25.000 fps, ~8500 kbps avg
Аудио:Русский 48.0 KHz, AC-3, 2 ch (L R), ~192 Kbps avg

Доп. информация: дополнительно бонус - Фильм о фильме

General
Complete name: D:\фильмы\azazel_[tfile.ru]\VIDEO_TS\VTS_01_1.VOB
Format: MPEG-PS
File size: 1 024 MiB
Duration: 25mn 37s
Overall bit rate: 5 585 Kbps

Video
ID: 224 (0xE0)
Format: MPEG Video
Format version: Version 2
Format profile: Main@Main
Format settings, BVOP: Yes
Format settings, Matrix: Default
Format settings, GOP: M=3, N=12
Duration: 25mn 37s
Bit rate mode: Variable
Bit rate: 5 282 Kbps
Nominal bit rate: 8 500 Kbps
Width: 720 pixels
Height: 576 pixels
Display aspect ratio: 4:3
Frame rate: 25.000 fps
Standard: PAL
Color space: YUV
Chroma subsampling: 4:2:0
Bit depth: 8 bits
Scan type: Interlaced
Scan order: Top Field First
Compression mode: Lossy
Bits/(Pixel*Frame): 0.509
Stream size: 968 MiB (95%)

Audio
ID: 128 (0x80)
Format: AC-3
Format/Info: Audio Coding 3
Mode extension: CM (complete main)
Duration: 25mn 37s
Bit rate mode: Constant
Bit rate: 192 Kbps
Channel(s): 2 channels
Channel positions: Front: L R
Sampling rate: 48.0 KHz
Bit depth: 16 bits
Compression mode: Lossy
Delay relative to video: -80ms
Stream size: 35.2 MiB (3%)

Menu








Поделиться:




реклама партнёра


Вернуться к началу
 Профиль Отправить личное сообщение  
 
   Похожие торренты   Автор   Торрент   Размер 
В этой теме нет новых непрочитанных сообщений. Семейка Спагетти / Spaghetti Family / 1-26 серий из 26 [мультфильм, комедия, 2003] WEBRip, Dub

salma3

0 | 3

9.02 ГБ

В этой теме нет новых непрочитанных сообщений. Воскрешение / Resurrection [ужасы, триллер, драма, криминал, детектив, 1999] DVD9, Dvo+Avo+Sub

salma3

16 | 3

5.34 ГБ

В этой теме нет новых непрочитанных сообщений. Кибер / Blackhat (Майкл Манн) [боевик, триллер, драма, криминал, детектив, 2015] DVD9, Dub+Sub [лицензия]

Dracon

0 | 0

6.83 ГБ

В этой теме нет новых непрочитанных сообщений. Целуя девушек / Kiss the Girls [триллер, драма, криминал, детектив, 1997] DVD9, 2Mvo+Dvo+2Avo+Sub

salma3

26 | 11

7.83 ГБ

В этой теме нет новых непрочитанных сообщений. Мой дом в Умбрии / My House in Umbria [триллер, драма, детектив, 2003] DVDRip, Mvo

salma3

31 | 4

1.37 ГБ

В этой теме нет новых непрочитанных сообщений. База «Клейтон» / Basic [Триллер, Драма, Криминал, Детектив, 2003] Blu-ray, Dub+2Mvo+Avo+Sub

salma3

19 | 4

23.3 ГБ

В этой теме нет новых непрочитанных сообщений. Плохие парни 2 / Bad Boys II [боевик, триллер, комедия, 2003] DVD9, Dub+Sub

salma3

23 | 8

5.66 ГБ


Начать новую тему Ответить на тему  [ 1 сообщение ] 




Для Мосгорсуда, Роскомнадзора и рекламодателей:: mosgorsud-torrent[собачка]yandex.ru