Торрент файл
скачать торрент магнет ссылка Добавлен: 07 янв 2012, 18:23
Размер: 7.2 ГБ
Сидеров: 3
Личеров: 6
Автор

СообщениеДобавлено: 07 янв 2012, 18:23 

Не в сети
Супермодератор
Аватара пользователя
Дата регистрации:
11 апр 2010, 18:10
Спасибо: 5799 / 7
Сообщения: 56779
Берегите женщин (2 серии из 2)

Перевод: Не требуется
Субтитры: Русские
Формат: DVD9, DVD Video, MPEG2, AC3
Страна: СССР
Режиссер: Виктор Макаров, Александр Полынников
Жанр: Мюзикл, комедия
Продолжительность: 01:03:19 + 01:03:19
Год выпуска: 1981

В ролях: Андрей Градов, Марина Шиманская, Светлана Пенкина, Галина Венивитинова, Игорь Скляр, Юрий Захаренков, Альгис Арлаускас, Гиви Тохадзе, Юрий Кузьменко, Юрий Медведев

Описание: Дочки портовых служащих — красивые, умные, талантливые, которым уготовано блестящее будущее — пошли в матросы на буксир, наплевав на все родительские мечты. Чтобы показать строптивицам, как трудна морская служба, родители позаботились, чтобы девушкам досталось самое старое, отслужившее свой век судно, и чтобы кормили их одними макаронами. Но это не остановило упрямиц, которые находят здесь свое счастье.

Рейтинг на КиноПоиск:7.739[/field]
Рейтинг на IMDB:6.8/10[/field][/field]

Видео: 720х576,PAL (4:3), 25,000 кадр/сек,MPEG2 Video, ~7000 Кбит/сек
Аудио #1: Русский, 48,0 КГц, AC3, 6 канала(ов), ~384 Кбит/сек
Аудио #2: Русский, 48,0 КГц, AC3, 2 канала(ов), ~384 Кбит/сек[/field]





















Полное имя: I:\Фильмы DVD\Наши\Берегите женщин DVD9\VIDEO_TS\VTS_01_2.VOB
Формат: MPEG-PS
Размер файла: 1024 Мбайт
Продолжительность: 18 м.
Общий поток: 7905 Кбит/сек
Видео
Идентификатор: 224 (0xE0)
Формат: MPEG Video
Версия формата: Version 2
Профиль формата: Main@Main
Параметр BVOP формата: Да
Параметр матрицы формата: По умолчанию
Параметры GOP формата: M=3, N=15
Продолжительность: 18 м.
Вид битрейта: Переменный
Битрейт: 7000 Кбит/сек
Ширина: 720 пикс.
Высота: 576 пикс.
Соотношение сторон: 4:3
Частота кадров: 25,000 кадр/сек
Стандарт вещания: PAL
Цветовое пространство: YUV
Подвыборка цветности: 4:2:0
Битовая глубина: 8 бит
Тип развёртки: Чересстрочная
Порядок развёртки: Верхнее поле первое
Метод сжатия: С потерями
Бит/(Пиксели*Кадры): 0.675
Размер потока: 904 Мбайт (88%)
Аудио #1
Идентификатор: 128 (0x80)
Формат: AC-3
Формат/Информация: Audio Coding 3
Расширение режима: CM (complete main)
Продолжительность: 18 м.
Вид битрейта: Постоянный
Битрейт: 384 Кбит/сек
Канал(ы): 6 канала(ов)
Расположение каналов: Front: L C R, Side: L R, LFE
Частота: 48,0 КГц
Битовая глубина: 16 бит
Метод сжатия: С потерями
Задержка видео: -536 мс.
Размер потока: 49,7 Мбайт (5%)
Аудио #2
Идентификатор: 129 (0x81)
Формат: AC-3
Формат/Информация: Audio Coding 3
Расширение режима: CM (complete main)
Продолжительность: 18 м.
Вид битрейта: Постоянный
Битрейт: 384 Кбит/сек
Канал(ы): 2 канала(ов)
Расположение каналов: Front: L R
Частота: 48,0 КГц
Битовая глубина: 16 бит
Метод сжатия: С потерями
Задержка видео: -536 мс.
Размер потока: 49,7 Мбайт (5%)
Текст
Идентификатор: 32 (0x20)
Формат: RLE
Формат/Информация: Run-length encoding
Задержка видео: 280 мс.
Меню

Поделиться:




реклама партнёра


Вернуться к началу
 Профиль Отправить личное сообщение  
 
   Похожие торренты   Автор   Торрент   Размер 
В этой теме нет новых непрочитанных сообщений. От всего сердца / One from the Heart [Мюзикл, Мелодрама, 1981] SATRip, Dvo

salma3

7 | 3

1.47 ГБ

В этой теме нет новых непрочитанных сообщений. Галавант [02 сезон: 01-10 серии из 10] [мюзикл, комедия, 2016] WEB-DLRip [GladiolusTV]

Dracon

7 | 8

2.63 ГБ

В этой теме нет новых непрочитанных сообщений. Любимец женщин / Roger Dodger [драма, комедия, 2002] BDRip, Dvo

salma3

27 | 3

1.85 ГБ

В этой теме нет новых непрочитанных сообщений. Любимец женщин / Roger Dodger [драма, комедия, 2002] BDRip 1080p, Dvo

salma3

126 | 26

12.19 ГБ

В этой теме нет новых непрочитанных сообщений. Мужчина, который любил женщин / The Man Who Loved Women [комедия, 1983] DVDRip, Dvo

salma3

20 | 4

1.46 ГБ

В этой теме нет новых непрочитанных сообщений. Резня женщин / Sorority Party Massacre [ужасы, детектив, комедия, 2012] HDRip, Avo

salma3

43 | 5

1.3 ГБ

В этой теме нет новых непрочитанных сообщений. Особенности поведения женщин-мигранток (Алексей Меняйлов) [2014, комедия, военный, WEBRip]

vairgin

17 | 2

119.72 МБ


Начать новую тему Ответить на тему  [ 1 сообщение ] 




Для Мосгорсуда, Роскомнадзора и рекламодателей:: mosgorsud-torrent[собачка]yandex.ru