Торрент файл
скачать торрент магнет ссылка Добавлен: 07 янв 2012, 18:23
Размер: 7.06 ГБ
Сидеров: 0
Личеров: 5
Автор

СообщениеДобавлено: 07 янв 2012, 18:23 

Не в сети
Супермодератор
Аватара пользователя
Дата регистрации:
11 апр 2010, 18:10
Спасибо: 5960 / 7
Сообщения: 56765
Волшебный голос Джельсомино (2 из 2 серий)

Перевод: Не требуется
Субтитры: отсутствуют
Формат: DVD9, DVD Video, MPEG2, AC3
Страна: СССР
Режиссер: Детский, мюзикл, фэнтези
Жанр: Тамара Лисициан
Продолжительность: 01:04:40+ 01:03:15
Год выпуска: 1977

В ролях: Сергей Крупенников, Владимир Басов, Роман Карцев, Евгения Ханаева, Лев Перфилов, Валерий Погорельцев, Людмила Жукова, Семен Крупник, Р. Юрьев-Лунц, Владимир Лосев

Описание: Наделенный от рождения волшебным голосом, способным разрушить стены, мальчик Джельсомино попадет в город, где по воле правителя все, даже животные, должны говорить неправду. Благодаря своему дару, он вместе со своими друзьями и кошкой-хромоножкой свергает жестокого диктатора, пытающегося развязать войну.

Рейтинг на КиноПоиск:6.904[/field]
Рейтинг на IMDB:6.6/10[/field][/field]

Видео: 720х576,PAL (4:3), 25,000 кадр/сек,MPEG-2 Video, ~8500 Кбит/сек
Аудио: Русский, 48,0 КГц, AC3, 6 канала(ов), ~448 Кбит/сек

Доп. информация: Песни к фильму записал популярный солист группы "Аракс" Сергей Беликов.























Полное имя:Волшебный голос Джельсомино DVD9\VIDEO_TS\VTS_07_1.VOB
Формат: MPEG-PS
Размер файла: 1024 Мбайт
Продолжительность: 19 м.
Общий поток: 7307 Кбит/сек
Видео
Идентификатор: 224 (0xE0)
Формат: MPEG Video
Версия формата: Version 2
Профиль формата: Main@Main
Параметр BVOP формата: Да
Параметр матрицы формата: По умолчанию
Продолжительность: 19 м.
Вид битрейта: Переменный
Битрейт: 6713 Кбит/сек
Номинальный битрейт: 8500 Кбит/сек
Ширина: 720 пикс.
Высота: 576 пикс.
Соотношение сторон: 4:3
Частота кадров: 25,000 кадр/сек
Стандарт вещания: PAL
Цветовое пространство: YUV
Подвыборка цветности: 4:2:0
Битовая глубина: 8 бит
Тип развёртки: Чересстрочная
Порядок развёртки: Верхнее поле первое
Метод сжатия: С потерями
Бит/(Пиксели*Кадры): 0.647
Размер потока: 941 Мбайт (92%)
Аудио
Идентификатор: 128 (0x80)
Формат: AC-3
Формат/Информация: Audio Coding 3
Расширение режима: CM (complete main)
Продолжительность: 19 м.
Вид битрейта: Постоянный
Битрейт: 448 Кбит/сек
Канал(ы): 6 канала(ов)
Расположение каналов: Front: L C R, Side: L R, LFE
Частота: 48,0 КГц
Битовая глубина: 16 бит
Метод сжатия: С потерями
Задержка видео: -80 мс.
Размер потока: 62,8 Мбайт (6%)
Меню

Поделиться:




реклама партнёра


Вернуться к началу
 Профиль Отправить личное сообщение  
 
   Похожие торренты   Автор   Торрент   Размер 
В этой теме нет новых непрочитанных сообщений. Волшебный меч: Спасение Камелота / Quest for Camelot [мультфильм, мюзикл, фэнтези, 1998] WEB-DL 720p, Dub

salma3

25 | 10

3.2 ГБ

В этой теме нет новых непрочитанных сообщений. Феникс и волшебный ковер / The Phoenix and the Magic Carpet [фэнтези, приключения, семейный, 1995] DVDRip, Mvo

salma3

53 | 9

1.46 ГБ

В этой теме нет новых непрочитанных сообщений. Суспирия / Suspiria [ужасы, фэнтези, драма, детектив, 1977] BDRip 720p, Mvo

salma3

57 | 28

7.91 ГБ

В этой теме нет новых непрочитанных сообщений. Синдбад и Глаз Тигра / Sinbad and the Eye of the Tiger [фэнтези, боевик, приключения, 1977] BDRip, Mvo

salma3

59 | 17

1.46 ГБ

В этой теме нет новых непрочитанных сообщений. Чужая дочь / Audrey Rose [ужасы, фэнтези, триллер, драма, 1977] BDRip 720p, Mvo+Sub

salma3

13 | 4

6.77 ГБ

В этой теме нет новых непрочитанных сообщений. Чужая дочь / Audrey Rose [ужасы, фэнтези, триллер, драма, 1977] BDRip 1080p, Mvo+Sub

salma3

7 | 5

15.73 ГБ

В этой теме нет новых непрочитанных сообщений. Синдбад и Глаз Тигра / Sinbad and the Eye of the Tiger [фэнтези, боевик, драма, приключения, семейный, 1977] BDRip 720p, Mvo+Avo

salma3

51 | 51

6.23 ГБ


Начать новую тему Ответить на тему  [ 1 сообщение ] 




Для Мосгорсуда, Роскомнадзора и рекламодателей:: mosgorsud-torrent[собачка]yandex.ru