Торрент файл
скачать торрент магнет ссылка Добавлен: 07 янв 2012, 18:23
Размер: 5.37 ГБ
Сидеров: 0
Личеров: 8
Автор

СообщениеДобавлено: 07 янв 2012, 18:23 

Не в сети
Супермодератор
Аватара пользователя
Дата регистрации:
11 апр 2010, 18:10
Спасибо: 5798 / 7
Сообщения: 56779
Америкэн бой

Перевод: Не требуется
Субтитры: отсутствуют
Формат: DVD9, DVD Video, MPEG2, AC3
Страна: Украина
Режиссер: Борис Квашнев
Жанр: Боевик, триллер, криминал
Продолжительность: 01:58:03
Год выпуска: 1992

В ролях: Александр Песков, Владимир Гостюхин, Олег Рогачев, Анатолий Хостикоев, Анна Унигорская, Галина Мороз, Валерий Свище,в Артур Ли, Гия Лежава, Сергей Пономаренко

Описание: После афганского плена Николай Найденов, бывший детдомовец, попадает в США, устраивается на работу инструктором в один из спортивных клубов, женится и получает американское гражданство. Жизнь складывается как нельзя лучше.Через некоторое время он приезжает на свою бывшую родину к армейскому другу Сергею и узнает от его жены, что Сергей убит по заказу главарей одного из кланов местной мафии. На следующий день боевики, после зверских пыток, несколькими ударами в живот убивают и беременную жену Сергея…

Рейтинг на КиноПоиск:6.326[/field]
Рейтинг на IMDB:4.7/10[/field][/field]

Видео: 720х576, (PAL 4:3), 25,000 кадр/сек,MPEG2 Video, ~9000 Кбит/сек
Аудио: Русский, 48,0 КГц, AC3, 6 канала(ов), ~448 Кбит/сек


















Полное имя: C:\Users\Петр\Documents\ТОРРЕНТЫ И Р2Р\Америкэн бой DVD-9\VIDEO_TS\VTS_01_1.VOB
Формат: MPEG-PS
Размер файла: 1024 Мбайт
Продолжительность: 24 м.
Общий поток: 5856 Кбит/сек
Видео
Идентификатор: 224 (0xE0)
Формат: MPEG Video
Версия формата: Version 2
Профиль формата: Main@Main
Параметр BVOP формата: Да
Параметр матрицы формата: По умолчанию
Параметры GOP формата: M=3, N=15
Продолжительность: 24 м.
Вид битрейта: Переменный
Битрейт: 5291 Кбит/сек
Номинальный битрейт: 9000 Кбит/сек
Ширина: 720 пикс.
Высота: 576 пикс.
Соотношение сторон: 4:3
Частота кадров: 25,000 кадр/сек
Стандарт вещания: PAL
Цветовое пространство: YUV
Подвыборка цветности: 4:2:0
Битовая глубина: 8 бит
Тип развёртки: Чересстрочная
Порядок развёртки: Нижнее поле первое
Метод сжатия: С потерями
Бит/(Пиксели*Кадры): 0.510
Размер потока: 925 Мбайт (90%)
Аудио
Идентификатор: 128 (0x80)
Формат: AC-3
Формат/Информация: Audio Coding 3
Расширение режима: CM (complete main)
Продолжительность: 4 с. 736 мс.
Вид битрейта: Постоянный
Битрейт: 448 Кбит/сек
Канал(ы): 6 канала(ов)
Расположение каналов: Front: L C R, Side: L R, LFE
Частота: 48,0 КГц
Битовая глубина: 16 бит
Метод сжатия: С потерями
Размер потока: 259 Кбайт (0%)
Меню

Поделиться:




реклама партнёра


Вернуться к началу
 Профиль Отправить личное сообщение  
 
   Похожие торренты   Автор   Торрент   Размер 
В этой теме нет новых непрочитанных сообщений. Музыкант / El mariachi [боевик, триллер, драма, криминал, 1992] HDRip, Avo

salma3

12 | 4

1.45 ГБ

В этой теме нет новых непрочитанных сообщений. Двойные неприятности / Double Trouble [боевик, триллер, комедия, криминал, 1992] HDTVRip, Dvo [НТВ+]

salma3

36 | 6

1.37 ГБ

В этой теме нет новых непрочитанных сообщений. Считанные секунды / Split second [ужасы, фантастика, боевик, триллер, криминал, 1992] BDRip AVC, 3Mvo+Avo+Sub

salma3

113 | 3

2.89 ГБ

В этой теме нет новых непрочитанных сообщений. Считанные секунды / Split second [ужасы, фантастика, боевик, триллер, криминал, 1992] BDRip 720p, 3Mvo+Avo+Sub

salma3

115 | 9

4.2 ГБ

В этой теме нет новых непрочитанных сообщений. Игры патриотов / Patriot Games [боевик, триллер, драма, криминал, 1992] BDRip 720p, 2Mvo+Avo+Dvo

salma3

23 | 6

11.71 ГБ

В этой теме нет новых непрочитанных сообщений. Считанные секунды / Split second [ужасы, фантастика, боевик, триллер, криминал, 1992] BDRip 1080p, 3Mvo+Avo+Sub

salma3

76 | 9

9.6 ГБ

В этой теме нет новых непрочитанных сообщений. Кибер / Blackhat (Майкл Манн) [боевик, триллер, драма, криминал, детектив, 2015] DVD9, Dub+Sub [лицензия]

Dracon

0 | 0

6.83 ГБ


Начать новую тему Ответить на тему  [ 1 сообщение ] 




Для Мосгорсуда, Роскомнадзора и рекламодателей:: mosgorsud-torrent[собачка]yandex.ru