COVID-19 - Последняя информация о коронавирусе на сайте Минздрава




Торрент файл
скачать торрент магнет ссылка Добавлен: 07 янв 2012, 18:22
Размер: 5.84 ГБ
Сидеров: 0
Личеров: 4
Автор

СообщениеДобавлено: 07 янв 2012, 18:22 

Не в сети
Супермодератор
Аватара пользователя
Дата регистрации:
11 апр 2010, 18:10
Спасибо: 6059 / 7
Сообщения: 56660
Возница / Korkarlen

Перевод: Субтитры
Субтитры: Русские (2 вида), английские
Формат: DVD9, DVD Video, MPEG2, AC3, PCM
Страна: Швеция
Режиссер: Виктор Шёстрём
Жанр: ужасы, мистика, драма
Продолжительность: 01:46:53
Год выпуска: 1921

В ролях: Виктор Шёстрём, Хильда Боргстрём, Астрид Холм, Айнар Аксельссон

Описание: В канун Нового года трое пьяниц вспоминают легенду. Согласно ей умерший последним в текущем году, в случае если он много грешил, будет управлять в течение всего года Призрачной Повозкой, которая подвозит души умерших. Один из этих пьяниц, Дэвид Холм, умирает ровно в полночь… (По сказке Сельмы Лагерлёф.)

Рейтинг КиноПоиск.RU:8.226
Рейтинг на IMDB:7.9/10

Видео: 720х576 (PAL 16:9), 25,000 fps, MPEG-2 Video, ~5280 kbps avg
Аудио#1: 48 kHz, AC-3, 2 (L,R) ch, ~256 kbps ][Музыкальное сопровождение от Matti Bye ]
Аудио#2: 48 kHz, PCM, 2 (L,R) ch, ~1536 kbps [Шумовой саундтрек группы "KTL" (Stephen O’Malley & Peter Rehberg) ]


Общее
Полное имя: D:\Korkarlen - Возница, 1921 (Sjostrom) [DVD9-Tartan_RusSub]\VIDEO_TS\VTS_01_1.VOB
Формат: MPEG-PS
Размер файла: 1024 Мбайт
Продолжительность: 19 м.
Общий поток: 7215 Кбит/сек

Видео
Идентификатор: 224 (0xE0)
Формат: MPEG Video
Версия формата: Version 2
Профиль формата: Main@Main
Параметр BVOP формата: Да
Параметр матрицы формата: По умолчанию
Продолжительность: 19 м.
Вид битрейта: Постоянный
Битрейт: 5280 Кбит/сек
Ширина: 720 пикс.
Высота: 576 пикс.
Соотношение сторон: 16:9
Частота кадров: 25,000 кадр/сек
Стандарт вещания: PAL
Цветовое пространство: YUV
Подвыборка цветности: 4:2:0
Битовая глубина: 8 бит
Метод сжатия: С потерями
Бит/(Пиксели*Кадры): 0.509
Размер потока: 749 Мбайт (73%)

Аудио #1
Идентификатор: 189 (0xBD)-129 (0x81)
Формат: AC-3
Формат/Информация: Audio Coding 3
Расширение режима: CM (complete main)
Режим смешивания: DVD-Video
Продолжительность: 19 м.
Вид битрейта: Постоянный
Битрейт: 256 Кбит/сек
Канал(ы): 2 канала(ов)
Расположение каналов: Front: L R
Частота: 48,0 КГц
Битовая глубина: 16 бит
Метод сжатия: С потерями
Размер потока: 36,3 Мбайт (4%)

Аудио #2
Идентификатор: 189 (0xBD)-160 (0xA0)
Формат: PCM
Параметр Endianness формата: Big
Параметр Sign формата: Signed
Режим смешивания: DVD-Video
Продолжительность: 19 м.
Вид битрейта: Постоянный
Битрейт: 1536 Кбит/сек
Канал(ы): 2 канала(ов)
Расположение каналов: Front: L R
Частота: 48,0 КГц
Битовая глубина: 16 бит
Размер потока: 218 Мбайт (21%)

Меню










Поделиться:



Скачать книги и аудио книги через торрент


Вернуться к началу
 Профиль Отправить личное сообщение  
 
   Похожие торренты   Автор   Торрент   Размер 
В этой теме нет новых непрочитанных сообщений. Дороти Миллс / Dorothy Mills [Ужас, мистика, 2008] DVD9, Dvo

salma3

0 | 0

7.26 ГБ

В этой теме нет новых непрочитанных сообщений. Суспирия / Suspiria [Ужасы, мистика, драма, 1977] BDRip 1080p, Mvo

salma3

0 | 0

10.62 ГБ

В этой теме нет новых непрочитанных сообщений. Суспирия / Suspiria [Ужасы, мистика, драма, 1977] BDRemux 2160p, Mvo [4K]

salma3

0 | 0

53.1 ГБ

В этой теме нет новых непрочитанных сообщений. Страна призраков / Ghostland [ужасы, триллер, драма, 2018] DVD9, Dub [Лицензия]

salma3

0 | 0

5.16 ГБ

В этой теме нет новых непрочитанных сообщений. Звонок 2 / The Ring Two [Ужасы, драма, мистика, 2005] BDRip 1080p, Dub [iTunes]

salma3

0 | 0

9.03 ГБ

В этой теме нет новых непрочитанных сообщений. Сверхъестественное / Supernatural [15x01 из 20] [Фантастика, мистика, ужасы, триллер, драма, 2019] WEBRip, Mvo [DreamRecords]

K15

1 | 2

587.04 МБ

В этой теме нет новых непрочитанных сообщений. Подвиды 2: Кровавый камень / Bloodstone: Subspecies II [ужасы, драма, мистика, 1993] BDRemux 1080p, Avo

salma3

0 | 0

16.41 ГБ


Начать новую тему Ответить на тему  [ 1 сообщение ] 




Для Мосгорсуда, Роскомнадзора и рекламодателей:: rstracker[собака]yandex.ru
cron