Торрент файл
скачать торрент магнет ссылка Добавлен: 07 янв 2012, 18:21
Размер: 6 ГБ
Сидеров: 0
Личеров: 4
Автор

СообщениеДобавлено: 07 янв 2012, 18:21 

Не в сети
Супермодератор
Аватара пользователя
Дата регистрации:
11 апр 2010, 18:10
Спасибо: 5799 / 7
Сообщения: 56779
Большое ограбление поезда / The First Great Train Robbery

Перевод: Профессиональный (многоголосый, закадровый)
Cубтитры: Aнглийские, немецкие, французские, итальянские, испанские, голландские, шведские, датские, норвежские, финские
Формат: DVD9, DVD Video, MPEG2, AC3
Страна: Великобритания
Режиссер: Майкл Крайтон
Жанр: Боевик, триллер, драма, криминал, приключения
Продолжительность: 01:45:33
Год выпуска: 1979

В ролях: Шон Коннери, Дональд Сазерленд, Лесли-Энн, Даун Алан, Уэбб Малколм, Террис Роберт, Лэнг Майкл, Элфик Уэйн, Слип Памела, Сейлем Гэбриэлль Ллойд

Описание: В 1855 году во время Крымской войны Британская корона отправила солдатам жалование прямо на фронт. Но как? Слиток золота достоинством в 25 000 фунтов стерлингов выехал поездом из Лондона.
Некто Эдвард Пирс решил похитить слиток. Подобного ограбления история еще не знала. Но ему предстояло решить очень сложную задачу: достать четыре ключа от сейфа, которые хранились у четырех стражников.В этом Пирсу помогла его прелестная подружка Мириам. А вот укрыться от инспектора Скотланд-Ярда оказалось гораздо сложнее…


Рейтинг на КиноПоиск:7.176[/field]
Рейтинг MPAA :PG[/field]
Рейтинг на IMDB:6.9/10[/field][/field]

Видео: 720х576,PAL (4:3), 25,000 кадр/сек,MPEG2 Video, ~9800 Кбит/сек,0.584 Бит/(Пиксели*Кадры)
Аудио #1:Английский, 48,0 КГц, AC3, 6 канала(ов), ~448 Кбит/сек [Оригинал]
Аудио #2:Немецкий, 48,0 КГц, AC3, 2 канала(ов), ~224 Кбит/сек
Аудио #3:Французский, 48,0 КГц, AC3, 2 канала(ов), ~224 Кбит/сек
Аудио #4:Русский, 48,0 КГц, AC3, 2 канала(ов), ~192 Кбит/сек [Профессиональный (многоголосый закадровый)]
Аудио #5:Испанский, 48,0 КГц, AC3,канала(ов), ~224 Кбит/сек
Аудио #6:Русский, 48,0 КГц, AC3, 2 канала(ов), ~224 Кбит/сек[Профессиональный (многоголосый закадровый)(5 канал Петербург)] [/field]


Полное имя: L:\Большое ограбление поезда DVD-9\VIDEO_TS\VTS_01_1.VOB
Формат: MPEG-PS
Размер файла: 1024 Мбайт
Продолжительность: 18 м.
Общий поток: 7741 Кбит/сек
Видео
Идентификатор: 224 (0xE0)
Формат: MPEG Video
Версия формата: Version 2
Профиль формата: Main@Main
Параметр BVOP формата: Да
Параметр матрицы формата: По умолчанию
Продолжительность: 18 м.
Вид битрейта: Переменный
Битрейт: 6051 Кбит/сек
Номинальный битрейт: 9800 Кбит/сек
Ширина: 720 пикс.
Высота: 576 пикс.
Соотношение сторон: 4:3
Частота кадров: 25,000 кадр/сек
Стандарт вещания: PAL
Цветовое пространство: YUV
Подвыборка цветности: 4:2:0
Битовая глубина: 8 бит
Метод сжатия: С потерями
Бит/(Пиксели*Кадры): 0.584
Размер потока: 800 Мбайт (78%)
Аудио #1
Идентификатор: 128 (0x80)
Формат: AC-3
Формат/Информация: Audio Coding 3
Расширение режима: CM (complete main)
Продолжительность: 18 м.
Вид битрейта: Постоянный
Битрейт: 448 Кбит/сек
Канал(ы): 6 канала(ов)
Расположение каналов: Front: L C R, Side: L R, LFE
Частота: 48,0 КГц
Битовая глубина: 16 бит
Метод сжатия: С потерями
Размер потока: 59,3 Мбайт (6%)
Аудио #2
Идентификатор: 129 (0x81)
Формат: AC-3
Формат/Информация: Audio Coding 3
Расширение режима: CM (complete main)
Продолжительность: 18 м.
Вид битрейта: Постоянный
Битрейт: 224 Кбит/сек
Канал(ы): 2 канала(ов)
Расположение каналов: Front: L R
Частота: 48,0 КГц
Битовая глубина: 16 бит
Метод сжатия: С потерями
Размер потока: 29,6 Мбайт (3%)
Аудио #3
Идентификатор: 130 (0x82)
Формат: AC-3
Формат/Информация: Audio Coding 3
Расширение режима: CM (complete main)
Продолжительность: 18 м.
Вид битрейта: Постоянный
Битрейт: 224 Кбит/сек
Канал(ы): 2 канала(ов)
Расположение каналов: Front: L R
Частота: 48,0 КГц
Битовая глубина: 16 бит
Метод сжатия: С потерями
Размер потока: 29,6 Мбайт (3%)
Аудио #4
Идентификатор: 131 (0x83)
Формат: AC-3
Формат/Информация: Audio Coding 3
Расширение режима: CM (complete main)
Продолжительность: 18 м.
Вид битрейта: Постоянный
Битрейт: 192 Кбит/сек
Канал(ы): 2 канала(ов)
Расположение каналов: Front: L R
Частота: 48,0 КГц
Битовая глубина: 16 бит
Метод сжатия: С потерями
Размер потока: 25,4 Мбайт (2%)
Аудио #5
Идентификатор: 132 (0x84)
Формат: AC-3
Формат/Информация: Audio Coding 3
Расширение режима: CM (complete main)
Продолжительность: 18 м.
Вид битрейта: Постоянный
Битрейт: 224 Кбит/сек
Канал(ы): 2 канала(ов)
Расположение каналов: Front: L R
Частота: 48,0 КГц
Битовая глубина: 16 бит
Метод сжатия: С потерями
Размер потока: 29,6 Мбайт (3%)
Аудио #6
Идентификатор: 133 (0x85)
Формат: AC-3
Формат/Информация: Audio Coding 3
Профиль формата: Dolby Digital
Расширение режима: CM (complete main)
Продолжительность: 18 м.
Вид битрейта: Постоянный
Битрейт: 224 Кбит/сек
Канал(ы): 2 канала(ов)
Расположение каналов: Front: L R
Частота: 48,0 КГц
Битовая глубина: 16 бит
Метод сжатия: С потерями
Размер потока: 29,6 Мбайт (3%)
Текст #1
Идентификатор: 32 (0x20)
Формат: RLE
Формат/Информация: Run-length encoding
Текст #2
Идентификатор: 33 (0x21)
Формат: RLE
Формат/Информация: Run-length encoding
Текст #3
Идентификатор: 34 (0x22)
Формат: RLE
Формат/Информация: Run-length encoding
Текст #4
Идентификатор: 35 (0x23)
Формат: RLE
Формат/Информация: Run-length encoding
Текст #5
Идентификатор: 36 (0x24)
Формат: RLE
Формат/Информация: Run-length encoding
Текст #6
Идентификатор: 37 (0x25)
Формат: RLE
Формат/Информация: Run-length encoding
Текст #7
Идентификатор: 38 (0x26)
Формат: RLE
Формат/Информация: Run-length encoding
Текст #8
Идентификатор: 39 (0x27)
Формат: RLE
Формат/Информация: Run-length encoding
Текст #9
Идентификатор: 40 (0x2
Формат: RLE
Формат/Информация: Run-length encoding
Текст #10
Идентификатор: 41 (0x29)
Формат: RLE
Формат/Информация: Run-length encoding
Текст #11
Идентификатор: 42 (0x2A)
Формат: RLE
Формат/Информация: Run-length encoding
Текст #12
Идентификатор: 43 (0x2B)
Формат: RLE
Формат/Информация: Run-length encoding
Меню
























Поделиться:




реклама партнёра


Вернуться к началу
 Профиль Отправить личное сообщение  
 
   Похожие торренты   Автор   Торрент   Размер 
В этой теме нет новых непрочитанных сообщений. Великое ограбление поезда: История двух воров / The Great British Train Robbery: A Tale Of Two Thieves [Документальный, расследование, 2014] SatRip, Mvo

Dracon

6 | 2

968.82 МБ

В этой теме нет новых непрочитанных сообщений. Идеальное ограбление / Daylight Robbery [триллер, драма, криминал, 2008] DVDRip, Mvo

salma3

17 | 3

690.24 МБ

В этой теме нет новых непрочитанных сообщений. Сбрось маму с поезда / Throw Momma from the Train [комедия, криминал, 1987] BDRip, Dvo [НТВ+]

salma3

23 | 8

1.45 ГБ

В этой теме нет новых непрочитанных сообщений. Кибер / Blackhat (Майкл Манн) [боевик, триллер, драма, криминал, детектив, 2015] DVD9, Dub+Sub [лицензия]

Dracon

0 | 0

6.83 ГБ

В этой теме нет новых непрочитанных сообщений. Ограбление по-итальянски / The Italian Job [боевик, триллер, криминал, 2003] BDRemux 1080p, Dub

salma3

21 | 17

53.04 ГБ

В этой теме нет новых непрочитанных сообщений. Сила одиночки / A Force of One [боевик, триллер, драма, криминал, 1979] BDRip, Avo

salma3

30 | 2

1.46 ГБ

В этой теме нет новых непрочитанных сообщений. Вооружённое ограбление / Mains armees [драма, триллер, криминал, 2012] HDRip, Mvo [НТВ+]

salma3

32 | 2

1.46 ГБ


Начать новую тему Ответить на тему  [ 1 сообщение ] 




Для Мосгорсуда, Роскомнадзора и рекламодателей:: mosgorsud-torrent[собачка]yandex.ru