Торрент файл
скачать торрент магнет ссылка Добавлен: 07 янв 2012, 18:21
Размер: 6.89 ГБ
Сидеров: 0
Личеров: 4
Автор

СообщениеДобавлено: 07 янв 2012, 18:21 

Не в сети
Супермодератор
Аватара пользователя
Дата регистрации:
11 апр 2010, 18:10
Спасибо: 5802 / 7
Сообщения: 56779
Сельская учительница


Перевод: Не требуется
Субтитры: Русские, английские, французские, испанские, итальянские, немецкие
Формат: DVD9, DVD Video, MPEG2, AC3
Страна: СССР
Режиссер: Марк Донской
Жанр: драма
Продолжительность: 01:38:16
Год выпуска: 1947

В ролях: Вера Марецкая, Павел Оленев, Даниил Сагал, Владимир Лепешинский, Владимир Марута, Владимир Белокуров, Анатолий Ганичев, Эмма Балашева, Дмитрий Павлов, Ростислав Плятт

Описание: Канун Первой мировой войны. Окончив гимназию в Петербурге, Варя едет учить крестьянских детей. Сурово встречает юную учительницу глухая деревня. Вскоре появляется отбывающий в Сибири знакомый Вари по Петербургу — большевик Мартынов. Варя выходит за него замуж. Революция. Мартынов погибает на посту комиссара, Варе же предстоят тяжелые испытания в борьбе с кулачеством.

Рейтинг на КиноПоиске: 6.961/10

Видео: 720x576 (PAL 4/3), MPEG-2 Video, 25.000 fps, ~7010 kbps avg
Аудио #1: 48 kHz, AC3, 3/2 (L,C,R,l,r) + LFE ch, ~448.00 kbps avg
Аудио #2: 48 kHz, AC3, 1 ch, ~112.00 kbps avg


Формат: MPEG-PS
Размер файла: 1024 Мбайт
Продолжительность: 18 м.
Общий поток: 7724 Кбит/сек

Видео
Идентификатор: 224 (0xE0)
Формат: MPEG Video
Версия формата: Version 2
Профиль формата: Main@Main
Параметр BVOP формата: Да
Параметр матрицы формата: По умолчанию
Продолжительность: 18 м.
Битрейт: 7010 Кбит/сек
Ширина: 720 пикс.
Высота: 576 пикс.
Соотношение сторон: 4:3
Частота кадров: 25,000 кадр/сек
Стандарт вещания: PAL
Цветовое пространство: YUV
Подвыборка цветности: 4:2:0
Битовая глубина: 8 бит
Метод сжатия: С потерями
Бит/(Пиксели*Кадры): 0.676
Размер потока: 929 Мбайт (91%)

Аудио #1
Идентификатор: 189 (0xBD)-128 (0x80)
Формат: AC-3
Формат/Информация: Audio Coding 3
Расширение режима: CM (complete main)
Режим смешивания: DVD-Video
Продолжительность: 18 м.
Вид битрейта: Постоянный
Битрейт: 448 Кбит/сек
Каналы: 6 каналов
Расположение каналов: Front: L C R, Side: L R, LFE
Частота: 48,0 КГц
Битовая глубина: 16 бит
Метод сжатия: С потерями
Задержка видео: 440 мс.
Размер потока: 59,3 Мбайт (6%)

Аудио #2
Идентификатор: 189 (0xBD)-129 (0x81)
Формат: AC-3
Формат/Информация: Audio Coding 3
Расширение режима: CM (complete main)
Режим смешивания: DVD-Video
Продолжительность: 18 м.
Вид битрейта: Постоянный
Битрейт: 112 Кбит/сек
Каналы: 1 канал
Расположение каналов: Front: C
Частота: 48,0 КГц
Битовая глубина: 16 бит
Метод сжатия: С потерями
Задержка видео: 440 мс.
Размер потока: 14,8 Мбайт (1%)

Текст #1
Идентификатор: 189 (0xBD)-32 (0x20)
Формат: RLE
Формат/Информация: Run-length encoding
Режим смешивания: DVD-Video

Текст #2
Идентификатор: 189 (0xBD)-33 (0x21)
Формат: RLE
Формат/Информация: Run-length encoding
Режим смешивания: DVD-Video

Текст #3
Идентификатор: 189 (0xBD)-34 (0x22)
Формат: RLE
Формат/Информация: Run-length encoding
Режим смешивания: DVD-Video

Текст #4
Идентификатор: 189 (0xBD)-35 (0x23)
Формат: RLE
Формат/Информация: Run-length encoding
Режим смешивания: DVD-Video

Текст #5
Идентификатор: 189 (0xBD)-36 (0x24)
Формат: RLE
Формат/Информация: Run-length encoding
Режим смешивания: DVD-Video

Текст #6
Идентификатор: 189 (0xBD)-37 (0x25)
Формат: RLE
Формат/Информация: Run-length encoding
Режим смешивания: DVD-Video

Меню









































Поделиться:




реклама партнёра


Вернуться к началу
 Профиль Отправить личное сообщение  
 
   Похожие торренты   Автор   Торрент   Размер 
В этой теме нет новых непрочитанных сообщений. Учительница / A Teacher [драма, 2013] WEB-DLRip, Dvo

Ανδρέας

49 | 14

744.01 МБ

В этой теме нет новых непрочитанных сообщений. Сельская соска [2015 г., Amateur, Oral, CamRip]

Dievas

12 | 1

58.13 МБ

В этой теме нет новых непрочитанных сообщений. Учительница со всем классом на море / L'insegnante al mare con tutta la classe [комедия, 1979] DVDRip, Avo

salma3

50 | 5

1.46 ГБ

В этой теме нет новых непрочитанных сообщений. Дмитрий Донской. Спасти мир (Сергей Дубинкин) [Документальный, познавательный, исследование, реконструкция, 2015] HDTVRip

Dracon

167 | 1

556.64 МБ

В этой теме нет новых непрочитанных сообщений. Теория Большого Взрыва / The Big Bang Theory [08x01-19 из 24] (Марк Сендроуски) [2014-2015, Марк Сендроуски, HDTVRip | Кураж-Бамбей]

Nickolas3435

85 | 145

4.68 ГБ

В этой теме нет новых непрочитанных сообщений. Дикая / Wild (Жан-Марк Валле) [Драма, биография, 2014] HDRip, dvo

Dracon

1391 | 54

1.37 ГБ

В этой теме нет новых непрочитанных сообщений. Копенгаген / Copenhagen (Марк Расо) [2014, драма, мелодрама, WEB-DLRip] avo

Nickolas3435

571 | 15

1.43 ГБ


Начать новую тему Ответить на тему  [ 1 сообщение ] 




Для Мосгорсуда, Роскомнадзора и рекламодателей:: mosgorsud-torrent[собачка]yandex.ru