Торрент файл
скачать торрент магнет ссылка Добавлен: 07 янв 2012, 18:21
Размер: 6.53 ГБ
Сидеров: 0
Личеров: 4
Автор

СообщениеДобавлено: 07 янв 2012, 18:21 

Не в сети
Супермодератор
Аватара пользователя
Дата регистрации:
11 апр 2010, 18:10
Спасибо: 5802 / 7
Сообщения: 56779
Оружейный барон / Lord of War

[font=Coo�t>Sans MS]Перевод: Профессиональный (полное дублирование)
Субтитры: русские
Формат: DVD-9, DVD Video, MPEG-2, AC-3
Страна: США, Германия, Франция
Режиссер: Эндрю Никкол
Жанр: триллер, драма, криминал
Продолжительность: 01:56:58
Год выпуска: 2005

В главных ролях: Николас Кейдж, Бриджет Мойнэхэн, Джаред Лето, Иэн Холм, Этан Хоук, Сэмми Ротиби, Имонн Уолкер, Дэвид Хармен, Евгений Лазарев, Джаспер Ленц

Роли дублировали:Александр Рахленко, Любовь Германова, Михаил Тихонов, Вячеслав Баранов, Игорь Тарадайкин

Описание: Родители братьев Орловых, старшего Юрия и младшего Виталия, покинули Украину и
обосновались в Америке, на Брайтон-Бич, где открыли маленький ресторанчик.
Дети же не рвались идти по родительским стопам. Юрий, раздумывая, чем заниматься,
пришел к выводу: самое выгодное — торговать оружием. Потому что в мире, переполненном
агрессией, оружие никогда не бывает лишним. Оно нужно и родственникам, дерущимся друг
с другом, и конкурирующим бандам, и враждующим государствам.
Юрий Орлов, опираясь на младшего брата Виталия, быстро завоевывает свое
место под солнцем и надеется в скором времени стать таким же крутым «продавцом смерти»,
как его кумир Симеон Вайс. Но чем выше поднимается Юрий, тем ближе к нему подбирается агент Интерпола Джек Валентайн
[/font]

Рейтинг на КиноПоиск:[font=Coo�t>Sans MS] 7.752 (20 215)[/font]
Рейтинг на IMDb:[font=Coo�t>Sans MS] 7.7/10[/font]
Рейтинг MPAA:[font=Coo�t>Sans MS] R[/font]

[font=Coo�t>Sans MS]Видео:720x576 (PAL 4:3), 25,000fps, MPEG-2 Video, ~ 8500Kbps avg
Аудио#1: Русский 48.0KHz, AC-3, 6 ch, ~ 448Kbps avg[Профессиональный (полное дублирование)]
Аудио#2: Английский 48.0KHz, AC-3, 6 ch ~ 448Kbps avg [Оригинал][/field][/font]

Меню:[font=Coo�t>Sans MS] Анимированное, озвученное с навигацией по эпизодам[/font]

[font=Coo�t>Sans MS]Слоган: «Первое правило торговца оружием – не будь подстрелен из своего же собственного товара»[/font]

Трейлер к фильму

[font=Coo�t>Sans MS]
Общее
Полное имя: D:\загрузки\lord_of_war_[tfile.ru]\VIDEO_TS\VTS_03_3.VOB
Формат: MPEG-PS
Размер файла: 1024 Мбайт
Продолжительность: 18 м.
Общий поток: 7550 Кбит/сек

Видео
Идентификатор: 224 (0xE0)
Формат: MPEG Video
Версия формата: Version 2
Профиль формата: Main@Main
Параметр BVOP формата: Да
Параметр матрицы формата: Выборочная
Параметр GOP формата: M=3, N=12
Продолжительность: 18 м.
Вид битрейта: Переменный
Битрейт: 6504 Кбит/сек
Максимальный битрейт: 8500 Кбит/сек
Ширина: 720 пикселей
Высота: 576 пикселей
Соотношение сторон: 4:3
Частота кадров: 25,000 кадров/сек
Стандарт вещания: PAL
Цветовое пространство: YUV
Субдискретизация насыщенности: 4:2:0
Битовая глубина: 8 бит
Тип развёртки: Чересстрочная
Порядок развёртки: Верхнее поле первое
Метод сжатия: С потерями
Бит/(Пиксели*Кадры): 0.627
Размер потока: 882 Мбайт (86%)

Аудио #1
Идентификатор: 189 (0xBD)-128 (0x80)
Формат: AC-3
Формат/Информация: Audio Coding 3
Расширение режима: CM (complete main)
Режим смешивания: DVD-Video
Продолжительность: 18 м.
Вид битрейта: Постоянный
Битрейт: 448 Кбит/сек
Каналы: 6 каналов
Расположение каналов: Front: L C R, Side: L R, LFE
Частота: 48,0 КГц
Битовая глубина: 16 бит
Метод сжатия: С потерями
Задержка видео: -392 мс.
Размер потока: 60,8 Мбайт (6%)

Аудио #2
Идентификатор: 189 (0xBD)-129 (0x81)
Формат: AC-3
Формат/Информация: Audio Coding 3
Расширение режима: CM (complete main)
Режим смешивания: DVD-Video
Продолжительность: 18 м.
Вид битрейта: Постоянный
Битрейт: 448 Кбит/сек
Каналы: 6 каналов
Расположение каналов: Front: L C R, Side: L R, LFE
Частота: 48,0 КГц
Битовая глубина: 16 бит
Метод сжатия: С потерями
Задержка видео: -392 мс.
Размер потока: 60,8 Мбайт (6%)

Текст
Идентификатор: 189 (0xBD)-32 (0x20)
Формат: RLE
Формат/Информация: Run-length encoding
Режим смешивания: DVD-Video
Продолжительность: 18 м.
Задержка видео: 2 с. 560 мс.

Меню

Сценарий: Эндрю Никкол
Продюсер: Артемио Бенки, Гари Хэмилтон, Дуглас Хансен, ...
Оператор: Амир М. Мокри
Композитор: Антонио Пинто
Художник: Жан-Венсен Пузо, Элизабетта Беральдо
Монтаж: Зэк Стэнберг
Бюджет: $50 000 000
Сборы в США: $24 149 632
Сборы в мире: + $48 467 436 = $72 617 068
Сборы в России: $208 279
Зрители: США3.77 млн, Франция1.23 млн, Великобритания528.8 тыс., ...
Премьера (мир): 16 сентября 2005, ...
Премьера (РФ): 2 февраля 2006, «Гемини»

Для съемок сцены со складом автоматов были закуплены реальные автоматы Калашникова, так как они были дешевле чем муляжи.
Съемки проходили в ЮАР, Чехии и Нью-Йорке.
Ни одна американская студия не захотела связываться с этим проектом. Фильм финансировали иностранные компании.
Танки в картине настоящие. Когда-то они принадлежали чешской армии, а сейчас были предназначены
для продажи в другую страну. Киношникам пришлось на всякий случай предупредить НАТО,
чтобы там, зафиксировав со спутников большое скопление техники, не решили, будто началась война.
Эндрю Никкол уверял, что консультантами в фильме выступили настоящие продавцы оружия.
Дядя Юрия Орлова - Дмитрий Волков - в фильме был представлен как генерал-майор, но на
погонах отчетливо видны две звезды генерал-лейтенанта.



























[/font]
Поделиться:




реклама партнёра


Вернуться к началу
 Профиль Отправить личное сообщение  
 
   Похожие торренты   Автор   Торрент   Размер 
В этой теме нет новых непрочитанных сообщений. Хорошее убийство / Good Kill (Эндрю Никкол) [триллер, драма, 2014] BDRip 720p, Mvo [iTunes]

Dracon

372 | 39

5.65 ГБ

В этой теме нет новых непрочитанных сообщений. Хорошее убийство / Good Kill (Эндрю Никкол) [триллер, 2014] HDRip, Mvo

Dracon

3414 | 158

1.45 ГБ

В этой теме нет новых непрочитанных сообщений. Хорошее убийство / Good Kill (Эндрю Никкол) [триллер, 2014] HDRip [ColdFilm]

Dracon

43 | 5

1.36 ГБ

В этой теме нет новых непрочитанных сообщений. Хорошее убийство / Good Kill (Эндрю Никкол) [триллер, 2014] HDRip, Mvo [iTunes]

Dracon

2 | 0

1.46 ГБ

В этой теме нет новых непрочитанных сообщений. Хорошее убийство / Good Kill (Эндрю Никкол) [триллер, 2014] BDRip 1080p, Mvo [iTunes]

Dracon

172 | 19

12.81 ГБ

В этой теме нет новых непрочитанных сообщений. Снег в раю / Snow in Paradise (Эндрю Хьюм) [Триллер, драма, криминал, 2014] HDRip, dvo

Dracon

399 | 37

1.41 ГБ

В этой теме нет новых непрочитанных сообщений. Lord Symphony - The Lord's Wisdom [2014, Epic Power Metal, MP3]

PriZraK

0 | 1

156.35 МБ


Начать новую тему Ответить на тему  [ 1 сообщение ] 




Для Мосгорсуда, Роскомнадзора и рекламодателей:: mosgorsud-torrent[собачка]yandex.ru