Торрент файл
скачать торрент магнет ссылка Добавлен: 07 янв 2012, 18:21
Размер: 6.63 ГБ
Сидеров: 0
Личеров: 11
Автор

СообщениеДобавлено: 07 янв 2012, 18:21 

Не в сети
Супермодератор
Аватара пользователя
Дата регистрации:
11 апр 2010, 18:10
Спасибо: 5801 / 7
Сообщения: 56779
Женщина есть женщина / Une femme est une femme

Перевод: Профессиональный (многоголосый, закадровый)
Cубтитры: Русские
Формат: DVD9, DVD Video, MPEG2, AC3
Страна: Франция, Италия
Режиссер: Жан-Люк Годар
Жанр: Мюзикл, драма, мелодрама, комедия
Продолжительность: 01:23:58
Год выпуска: 1961
В ролях: Жан-Клод Бриали, Анна Карина, Жан-Поль Бельмондо, Анри Атталь, Karyn Balm, Доротея Бланк, Катрин Демонжо, Мари Дюбуа, Ernest Menzer, Жанна Моро
Описание: Анжела во что бы то ни стало хочет ребенка, но ее муж Эмиль отказывается. В конце концов она делает вид, что попросила их друга Альфреда оказать ей честь, которая принимается. Эмиль, пойманный в ловушку, наконец удовлетворяет желание своей жены.

Рейтинг на КиноПоиск:7.862[/field]
Рейтинг на IMDB:7.6/10[/field][/field]

Видео: 720x480, ( NTSC 16:9), MPEG2 Video, 29,970 кадр/сек, ~ 9 800 Кбит/сек
Аудио#1:Русский, 48,0 КГц, AC3,1 2 канала(ов), ~192 Кбит/сек [Профессиональный (многоголосый, закадровый)]
Аудио#2:Французский, 48,0 КГц, AC3, 1 канала(ов), ~192 Кбит/сек [Оригинал][/field]


Полное имя: D:\ЖАН ПОЛЬ БЕЛЬМОНДО\Женщина есть женщина DVD-9\VIDEO_TS\VTS_01_1.VOB
Формат: MPEG-PS
Размер файла: 1024 Мбайт
Продолжительность: 20 м.
Общий поток: 7005 Кбит/сек
Видео
Идентификатор: 224 (0xE0)
Формат: MPEG Video
Версия формата: Version 2
Профиль формата: Main@Main
Параметр BVOP формата: Да
Параметр матрицы формата: По умолчанию
Продолжительность: 20 м.
Вид битрейта: Переменный
Битрейт: 6481 Кбит/сек
Номинальный битрейт: 9800 Кбит/сек
Ширина: 720 пикс.
Высота: 480 пикс.
Соотношение сторон: 16:9
Частота кадров: 29,970 кадр/сек
Стандарт вещания: NTSC
Цветовое пространство: YUV
Подвыборка цветности: 4:2:0
Битовая глубина: 8 бит
Тип развёртки: Чересстрочная
Порядок развёртки: Верхнее поле первое
Метод сжатия: С потерями
Бит/(Пиксели*Кадры): 0.626
Размер потока: 947 Мбайт (93%)
Аудио #1
Идентификатор: 128 (0x80)
Формат: AC-3
Формат/Информация: Audio Coding 3
Расширение режима: CM (complete main)
Продолжительность: 20 м.
Вид битрейта: Постоянный
Битрейт: 192 Кбит/сек
Канал(ы): 1 канал
Расположение каналов: Front: C
Частота: 48,0 КГц
Битовая глубина: 16 бит
Метод сжатия: С потерями
Размер потока: 28,1 Мбайт (3%)
Аудио #2
Идентификатор: 129 (0x81)
Формат: AC-3
Формат/Информация: Audio Coding 3
Расширение режима: CM (complete main)
Продолжительность: 20 м.
Вид битрейта: Постоянный
Битрейт: 192 Кбит/сек
Канал(ы): 1 канал
Расположение каналов: Front: C
Частота: 48,0 КГц
Битовая глубина: 16 бит
Метод сжатия: С потерями
Размер потока: 28,1 Мбайт (3%)
Меню


















Поделиться:




реклама партнёра


Вернуться к началу
 Профиль Отправить личное сообщение  
 
   Похожие торренты   Автор   Торрент   Размер 
В этой теме нет новых непрочитанных сообщений. Экс-женщина моей жизни / L'ex-femme de ma vie [Драма, комедия, 2004] DVDRip, Mvo

salma3

14 | 2

1.45 ГБ

В этой теме нет новых непрочитанных сообщений. Женщина в красных сапогах / La femme aux bottes rouges [драма, фэнтези, комедия, 1974] DVDRip, Dvo

salma3

130 | 3

1.46 ГБ

В этой теме нет новых непрочитанных сообщений. Домохозяйка / Une femme de ménage [драма, мелодрама, комедия, 2002] DVDRip, Mvo

salma3

19 | 2

1.36 ГБ

В этой теме нет новых непрочитанных сообщений. Мужчина и женщина / Raja Jani [драма, мелодрама, комедия, 2013] DVDRip, Mvo

salma3

10 | 5

1.42 ГБ

В этой теме нет новых непрочитанных сообщений. Деловая женщина / Working Girl [драма, мелодрама, комедия, 1988] BDRip 1080p, Dub+Mvo+Avo+Sub

salma3

21 | 3

20.35 ГБ

В этой теме нет новых непрочитанных сообщений. Деловая женщина / Working Girl [драма, мелодрама, комедия, 1988] BDRip 720p, Dub+Mvo+Avo+Sub

salma3

50 | 6

8.42 ГБ

В этой теме нет новых непрочитанных сообщений. Незамужняя женщина / An Unmarried Woman (Пол Мазурски / Paul Mazursky) [1978г., драма, мелодрама, комедия, DVDRip] AVO

Alfredovich

26 | 4

1.39 ГБ


Начать новую тему Ответить на тему  [ 1 сообщение ] 




Для Мосгорсуда, Роскомнадзора и рекламодателей:: mosgorsud-torrent[собачка]yandex.ru