COVID-19 - Последняя информация о коронавирусе на сайте Минздрава




Торрент файл
скачать торрент магнет ссылка Добавлен: 07 янв 2012, 18:20
Размер: 6.33 ГБ
Сидеров: 0
Личеров: 4
Автор

СообщениеДобавлено: 07 янв 2012, 18:20 

Не в сети
Супермодератор
Аватара пользователя
Дата регистрации:
11 апр 2010, 18:10
Спасибо: 6059 / 7
Сообщения: 56660
Жестокий полицейский / Sono otoko, kyobo ni tsuki

Перевод: Профессиональный (двухголосый)
Cубтитры:Русские
Формат: DVD9, DVD Video, MPEG2, AC3
Страна: Япония
Режиссер: Такеши Китано
Жанр: Боевик, триллер, драма, криминал
Продолжительность: 01:38:21
Год выпуска: 1989

В ролях: Такеши Китано, Маико Каваками, Макото Асикава, Широ Сано, Сей Хирайзуми, Mikiko Otonashi, Хакурю, Иттоку Кисибэ, Кен Йошидзава, Hiroyuki Katsube

Описание: К сожалению, в нашем несовершенном мире не бывает плохих и хороших полицейских. Существуют лишь обычные люди, занимающиеся опасной и неблагодарной работой, люди, рискующие в любой момент получить пулю в лоб.Детектив Азума — один из них. Как и другие «стражи порядка», он далеко не совершенен. Азума — страстный, но неудачливый игрок; грубый и нетерпимый человек, решающий практически все проблемы при помощи кулаков.Единственное, что отличает детектива от сослуживцев, так это «особые» методы работы. Азума отстаивает справедливость яростно и жестоко, не останавливаясь ни перед чем. Расследование серии ужасных убийств приведет детектива к поединку с извращенным преступником-садистом. Живым из этой схватке будет суждено выйти лишь одному…

Рейтинг на КиноПоиск:7.407[/field]
Рейтинг на IMDB:7.2/10[/field][/field]

Видео: 720x576, ( PAL 16:9), MPEG2 Video, 25,000 кадр/сек, ~ 8000 Кбит/сек
Аудио #1: Русский, 48,0 КГц, AC3, 6 канала(ов), ~384 Кбит/сек [Профессиональный (двухголосый)]
Аудио #2: Японский, 48,0 КГц, AC3, 6 канала(ов), ~384 Кбит/сек [Оригинал][/field]

Полное имя: H:\Фильмы DVD\Жестокий полицейский DVD-9\VIDEO_TS\VTS_11_1.VOB
Формат: MPEG-PS
Размер файла: 1024 Мбайт
Продолжительность: 17 м.
Общий поток: 8396 Кбит/сек
Видео
Идентификатор: 224 (0xE0)
Формат: MPEG Video
Версия формата: Version 2
Профиль формата: Main@Main
Параметр BVOP формата: Да
Параметр матрицы формата: По умолчанию
Параметры GOP формата: M=3, N=12
Продолжительность: 17 м.
Вид битрейта: Переменный
Битрейт: 7461 Кбит/сек
Номинальный битрейт: 8000 Кбит/сек
Ширина: 720 пикс.
Высота: 576 пикс.
Соотношение сторон: 16:9
Частота кадров: 25,000 кадр/сек
Стандарт вещания: PAL
Цветовое пространство: YUV
Подвыборка цветности: 4:2:0
Битовая глубина: 8 бит
Тип развёртки: Чересстрочная
Порядок развёртки: Верхнее поле первое
Метод сжатия: С потерями
Бит/(Пиксели*Кадры): 0.720
Размер потока: 910 Мбайт (89%)
Аудио #1
Идентификатор: 128 (0x80)
Формат: AC-3
Формат/Информация: Audio Coding 3
Расширение режима: CM (complete main)
Продолжительность: 17 м.
Вид битрейта: Постоянный
Битрейт: 384 Кбит/сек
Канал(ы): 6 канала(ов)
Расположение каналов: Front: L C R, Side: L R, LFE
Частота: 48,0 КГц
Битовая глубина: 16 бит
Метод сжатия: С потерями
Задержка видео: -80 мс.
Размер потока: 46,8 Мбайт (5%)
Аудио #2
Идентификатор: 129 (0x81)
Формат: AC-3
Формат/Информация: Audio Coding 3
Расширение режима: CM (complete main)
Продолжительность: 17 м.
Вид битрейта: Постоянный
Битрейт: 384 Кбит/сек
Канал(ы): 6 канала(ов)
Расположение каналов: Front: L C R, Side: L R, LFE
Частота: 48,0 КГц
Битовая глубина: 16 бит
Метод сжатия: С потерями
Задержка видео: -80 мс.
Размер потока: 46,8 Мбайт (5%)
Меню
























Поделиться:



Скачать книги и аудио книги через торрент


Вернуться к началу
 Профиль Отправить личное сообщение  
 
   Похожие торренты   Автор   Торрент   Размер 
В этой теме нет новых непрочитанных сообщений. Жестокий ручей / Mean Creek [драма, криминал, 2004] WEB-DL 1080p, Dvo

salma3

0 | 0

3.75 ГБ

В этой теме нет новых непрочитанных сообщений. Жестокий сезон / Скверный сезон / The Mean Season [триллер, криминал, 1985] BDRip, Dvo

salma3

0 | 0

1.45 ГБ

В этой теме нет новых непрочитанных сообщений. Ночная игра / Night Game [Триллер, Драма, Криминал, 1989] BDRemux 1080p, Dvo [НТВ+]

salma3

0 | 0

20.18 ГБ

В этой теме нет новых непрочитанных сообщений. Под прикрытием / Renegades [боевик, триллер, драма, 1989] HDRip, Dvo

salma3

0 | 0

1.45 ГБ

В этой теме нет новых непрочитанных сообщений. Маньяк-полицейский 2 / Maniac Cop 2 [ужасы, боевик, триллер, 1990] BDRip 720p, Dvo

salma3

1 | 1

4.37 ГБ

В этой теме нет новых непрочитанных сообщений. Полицейский-психопат / Psycho Cop [триллер, ужасы, 1989] DVDRip, Avo

salma3

0 | 1

1.47 ГБ

В этой теме нет новых непрочитанных сообщений. Выход в красное / Exit in Red [Триллер, драма, криминал, 1996] DVD9, Dvo

salma3

0 | 0

5.52 ГБ


Начать новую тему Ответить на тему  [ 1 сообщение ] 




Для Мосгорсуда, Роскомнадзора и рекламодателей:: rstracker[собака]yandex.ru
cron