Торрент файл
скачать торрент магнет ссылка Добавлен: 07 янв 2012, 18:20
Размер: 5.74 ГБ
Сидеров: 0
Личеров: 5
Автор

СообщениеДобавлено: 07 янв 2012, 18:20 

Не в сети
Супермодератор
Аватара пользователя
Дата регистрации:
11 апр 2010, 18:10
Спасибо: 5802 / 7
Сообщения: 56779
Жил-был полицейский / Il etait une fois un flic

Перевод: Профессиональный (многоголосый, закадровый)
Cубтитры: Русские
Формат: DVD9, DVD Video, MPEG2, AC3
Страна: Франция, Италия
Режиссер: Жорж Лотнер
Жанр: Kомедия, криминал
Продолжительность: 01:32:14
Год выпуска: 1971

В ролях: Мишель Константен, Микаэль Лонсдаль, Даниэль Ивернель, Мирей Дарк, ВенантиноВенантини, Джулиано Дисперати, Эрве Ийен, Робер Дальбан, Анри Гибе, Филлис Мейджор

Описание: Комиссар Кампана (по легенде — брат недавно убитого мафиози) отправляется в Ниццу со спецзаданием — найти и обезвредить боссов наркокартеля. Кампана — мрачный крутой мужик, привыкший решать все вопросы кулаком и пистолетом, не любящий женщин и детей, мешающих работе.
Однако на этот раз руководство решило осложнить ему жизнь — вместе со своей напарницей, очаровательной Кристин, и ее 9-летним сыном, они должны изображать счастливую семью… В Ницце их ждет теплая встреча — гангстеры, местные полицейские и громилы из американского Бюро по борьбе с распространением наркотиков — у всех есть вопросы к «брату» наркокурьера.


Рейтинг на КиноПоиск:7.368[/field]
Рейтинг на IMDB:5.9/10[/field][/field]

Видео: 720x576, ( PAL 4:3), MPEG2 Video, 25,000 кадр/сек, ~ 9500 Кбит/сек,0.720 Бит/(Пиксели*Кадры)
Аудио#1:Русский, 48,0 КГц, AC3, 2 канала(ов), ~192 Кбит/сек [Профессиональный (многоголосый, закадровый)]
Аудио#2:Французский, 48,0 КГц, AC3, 2 канала(ов), ~192 Кбит/сек [Оригинал][/field]

Доп. информация: Релиз на DVD 6 ноября 2008, «Мьюзик-Трейд»






Полное имя: D:\Жил-был полицейский DVD-9\VIDEO_TS\VTS_08_1.VOB
Формат: MPEG-PS
Размер файла: 1024 Мбайт
Продолжительность: 17 м.
Общий поток: 8010 Кбит/сек
Видео
Идентификатор: 224 (0xE0)
Формат: MPEG Video
Версия формата: Version 2
Профиль формата: Main@Main
Параметр BVOP формата: Да
Параметр матрицы формата: По умолчанию
Параметры GOP формата: M=3, N=13
Продолжительность: 17 м.
Вид битрейта: Переменный
Битрейт: 7467 Кбит/сек
Номинальный битрейт: 9500 Кбит/сек
Ширина: 720 пикс.
Высота: 576 пикс.
Соотношение сторон: 2,35:1
Частота кадров: 25,000 кадр/сек
Стандарт вещания: PAL
Цветовое пространство: YUV
Подвыборка цветности: 4:2:0
Битовая глубина: 8 бит
Тип развёртки: Чересстрочная
Порядок развёртки: Верхнее поле первое
Метод сжатия: С потерями
Бит/(Пиксели*Кадры): 0.720
Размер потока: 954 Мбайт (93%)
Аудио #1
Идентификатор: 128 (0x80)
Формат: AC-3
Формат/Информация: Audio Coding 3
Расширение режима: CM (complete main)
Продолжительность: 17 м.
Вид битрейта: Постоянный
Битрейт: 192 Кбит/сек
Канал(ы): 2 канала(ов)
Расположение каналов: Front: L R
Частота: 48,0 КГц
Битовая глубина: 16 бит
Метод сжатия: С потерями
Размер потока: 24,5 Мбайт (2%)
Аудио #2
Идентификатор: 129 (0x81)
Формат: AC-3
Формат/Информация: Audio Coding 3
Расширение режима: CM (complete main)
Продолжительность: 17 м.
Вид битрейта: Постоянный
Битрейт: 192 Кбит/сек
Канал(ы): 2 канала(ов)
Расположение каналов: Front: L R
Частота: 48,0 КГц
Битовая глубина: 16 бит
Метод сжатия: С потерями
Размер потока: 24,5 Мбайт (2%)
Текст
Идентификатор: 32 (0x20)
Формат: RLE
Формат/Информация: Run-length encoding
Меню























Поделиться:




реклама партнёра


Вернуться к началу
 Профиль Отправить личное сообщение  
 
   Похожие торренты   Автор   Торрент   Размер 
В этой теме нет новых непрочитанных сообщений. Полицейская история / Flic Story [триллер, драма, криминал, 1975] BDRip 1080p, Mvo+Dvo

salma3

12 | 2

12.11 ГБ

В этой теме нет новых непрочитанных сообщений. Полицейская история / Flic Story [триллер, драма, криминал, 1975] BDRip 720p, Mvo+Dvo

salma3

29 | 1

4.63 ГБ

В этой теме нет новых непрочитанных сообщений. За шкуру полицейского / Pour la peau d'un flic [боевик, мелодрама, криминал, 1981] BDRip 720p, Mvo+Sub

salma3

71 | 61

5.93 ГБ

В этой теме нет новых непрочитанных сообщений. Выходной у полицейского / Воскресенье полицейского / Un dimanche de flic [драма, криминал, 1983] SATRip, Mvo

salma3

35 | 3

1.49 ГБ

В этой теме нет новых непрочитанных сообщений. В следующий раз я буду стрелять в сердце / La prochaine fois je viserai le coeur (Седрик Анже) [триллер, драма, криминал, 2014] HDRip, Mvo [Лицензия]

Dracon

127 | 5

2.18 ГБ

В этой теме нет новых непрочитанных сообщений. В следующий раз я буду стрелять в сердце / La prochaine fois je viserai le coeur (Седрик Анже) [триллер, драма, криминал, 2014] HDRip, Mvo [Лицензия]

Dracon

343 | 9

1.45 ГБ

В этой теме нет новых непрочитанных сообщений. В следующий раз я буду стрелять в сердце / La prochaine fois je viserai le coeur (Седрик Анже) [триллер, драма, криминал, 2014] BDRip 720p, Mvo [Лицензия]

Dracon

46 | 3

4.67 ГБ


Начать новую тему Ответить на тему  [ 1 сообщение ] 




Для Мосгорсуда, Роскомнадзора и рекламодателей:: mosgorsud-torrent[собачка]yandex.ru