Торрент файл
скачать торрент магнет ссылка Добавлен: 07 янв 2012, 18:19
Размер: 6.7 ГБ
Сидеров: 1
Личеров: 4
Автор

СообщениеДобавлено: 07 янв 2012, 18:19 

Не в сети
Супермодератор
Аватара пользователя
Дата регистрации:
11 апр 2010, 18:10
Спасибо: 5960 / 7
Сообщения: 56765
За нас двоих / A nous deux

Перевод: Профессиональный (многоголосый, закадровый)
Cубтитры: Русские
Формат: DVD9, DVD Video, MPEG2, AC3
Страна: Канада, Франция
Режиссер: Клод Лелуш
Жанр: Мелодрама, криминал
Продолжительность: 01:47:05
Год выпуска: 1979
В ролях: Катрин Денёв, Жак Дютрон, Жак Вильр,е Поль Пребуа, Бернар Ле Кок, Gilberte Geniat, Жак Годин Моник Мелинан, Эмиль Жене, Жан-Франсуа Реми
Описание: В рождественскую ночь потомственный мошенник Симон совершает побег из тюрьмы. У своих друзей он случайно знакомится с Франсуазой — девушкой из приличной семьи, по воле судьбы ставшей авантюристкой.Франсуаза очень своеобразно зарабатывает на жизнь — она соблазняет мужчин, вместе со знакомым фотографом делает компрометирующие снимки и потом шантажирует «несчастных».
Однако, вскоре полиция выходит на след обоих искателей приключений — Симона и Франсуазы. Они решают вместе бежать из страны.


Рейтинг на КиноПоиск:7.333[/field]
Рейтинг на IMDB:6.3/10[/field][/field]

Видео: 720x576, ( PAL 16:9), MPEG2 Video, 25,000 кадр/сек, ~ 9500 Кбит/сек,0.528 Бит/(Пиксели*Кадры)
Аудио #1:Русский, 48,0 КГц, AC3, 2 канала(ов), ~192 Кбит/сек [Перевод: Профессиональный (многоголосый, закадровый)]
Аудио #2:Французский, 48,0 КГц, AC3, 2 канала(ов), ~192 Кбит/сек [Оригинал][/field]
Доп. информация: Релиз на DVD 18 августа 2011, «Мистерия Звука»

Полное имя: D:\За нас двоих DVD-9\VIDEO_TS\VTS_02_1.VOB
Формат: MPEG-PS
Размер файла: 1024 Мбайт
Продолжительность: 23 м.
Общий поток: 5973 Кбит/сек
Видео
Идентификатор: 224 (0xE0)
Формат: MPEG Video
Версия формата: Version 2
Профиль формата: Main@Main
Параметр BVOP формата: Да
Параметр матрицы формата: По умолчанию
Параметры GOP формата: M=3, N=12
Продолжительность: 23 м.
Вид битрейта: Переменный
Битрейт: 5470 Кбит/сек
Номинальный битрейт: 9500 Кбит/сек
Ширина: 720 пикс.
Высота: 576 пикс.
Соотношение сторон: 16:9
Частота кадров: 25,000 кадр/сек
Стандарт вещания: PAL
Цветовое пространство: YUV
Подвыборка цветности: 4:2:0
Битовая глубина: 8 бит
Тип развёртки: Чересстрочная
Порядок развёртки: Верхнее поле первое
Метод сжатия: С потерями
Бит/(Пиксели*Кадры): 0.528
Размер потока: 938 Мбайт (92%)
Аудио #1
Идентификатор: 128 (0x80)
Формат: AC-3
Формат/Информация: Audio Coding 3
Расширение режима: CM (complete main)
Продолжительность: 23 м.
Вид битрейта: Постоянный
Битрейт: 192 Кбит/сек
Канал(ы): 2 канала(ов)
Расположение каналов: Front: L R
Частота: 48,0 КГц
Битовая глубина: 16 бит
Метод сжатия: С потерями
Размер потока: 32,9 Мбайт (3%)
Аудио #2
Идентификатор: 129 (0x81)
Формат: AC-3
Формат/Информация: Audio Coding 3
Расширение режима: CM (complete main)
Продолжительность: 23 м.
Вид битрейта: Постоянный
Битрейт: 192 Кбит/сек
Канал(ы): 2 канала(ов)
Расположение каналов: Front: L R
Частота: 48,0 КГц
Битовая глубина: 16 бит
Метод сжатия: С потерями
Размер потока: 32,9 Мбайт (3%)
Текст
Идентификатор: 32 (0x20)
Формат: RLE
Формат/Информация: Run-length encoding
Продолжительность: 23 м.
Задержка видео: 3 с. 560 мс.
Меню


























Поделиться:




реклама партнёра


Вернуться к началу
 Профиль Отправить личное сообщение  
 
   Похожие торренты   Автор   Торрент   Размер 
В этой теме нет новых непрочитанных сообщений. За нас двоих / A nous deux [мелодрама, криминал, 1979] DVDRip-AVC, Mvo+Sub

salma3

5 | 3

1.45 ГБ

В этой теме нет новых непрочитанных сообщений. За нас двоих / A nous deux [мелодрама, криминал, 1979] DVD5, Mvo+Sub

salma3

2 | 4

4.36 ГБ

В этой теме нет новых непрочитанных сообщений. За нас двоих / A nous deux [мелодрама, криминал, 1979] BDRip, Mvo

salma3

4 | 0

1.45 ГБ

В этой теме нет новых непрочитанных сообщений. За нас двоих / A nous deux [мелодрама, криминал, 1979] BDRip 1080p, Mvo+Sub

salma3

24 | 2

13.54 ГБ

В этой теме нет новых непрочитанных сообщений. За нас двоих / A nous deux [мелодрама, криминал, 1979] BDRip 720p, Mvo+Sub

salma3

58 | 4

4.73 ГБ

В этой теме нет новых непрочитанных сообщений. За пределами тьмы / Buio Omega [ужасы, драма, мелодрама, криминал, 1979] BDRip 720p, Avo

salma3

68 | 24

4.55 ГБ

В этой теме нет новых непрочитанных сообщений. Призрак на двоих [мелодрама, 2016] SATRip

salma3

1096 | 105

1.36 ГБ


Начать новую тему Ответить на тему  [ 1 сообщение ] 




Для Мосгорсуда, Роскомнадзора и рекламодателей:: mosgorsud-torrent[собачка]yandex.ru