COVID-19 - Последняя информация о коронавирусе на сайте Минздрава




Торрент файл
скачать торрент магнет ссылка Добавлен: 07 янв 2012, 18:19
Размер: 4.52 ГБ
Сидеров: 0
Личеров: 5
Автор

СообщениеДобавлено: 07 янв 2012, 18:19 

Не в сети
Супермодератор
Аватара пользователя
Дата регистрации:
11 апр 2010, 18:10
Спасибо: 6059 / 7
Сообщения: 56660
Зануда / L'emmerdeur

Перевод: Профессиональный (многоголосый, закадровый)
Cубтитры:Русские
Формат: DVD9, DVD Video, MPEG2, AC3
Страна: Франция
Режиссер: Франсис Вебер
Жанр: Комедия
Продолжительность: 01:24:02
Год выпуска: 2008
В ролях: Ришар Берри, Патрик Тимсит, Паскаль Элбе, Вирджиния Ледуайен, Лорен Паолин,и Мишель Омон, Cedric Chevalme, Laurie Lefret, Хосе Пол Стефан Бьерри
Описание: Две комнаты в отеле. В одной поселился профессиональный убийца, в другой — потенциальный самоубийца. Между комнатами — дверь и когда она откроется, циничному преступнику предстоит познакомиться с чемпионом мира по занудству, страдающему от несчастной любви.

Рейтинг на КиноПоиск:6.204[/field]
Рейтинг на IMDB:4.9/10[/field][/field]

Видео: 720x576, ( PAL 16:9), MPEG2 Video, 25,000 кадр/сек, ~ 8904 Кбит/сек,0.606 Бит/(Пиксели*Кадры)
Аудио #1:Русский, 48,0 КГц, AC3, 6 канала(ов), ~448 Кбит/сек [Перевод: Профессиональный (многоголосый, закадровый)]
Аудио #2:Французский, 48,0 КГц, AC3, 6 канала(ов), ~448 Кбит/сек [Оригинал][/field]
Доп. информация: Релиз на DVD 19 августа 2010, «CP-Digital»


Полное имя: D:\Зануда DVD-5\VIDEO_TS\VTS_05_1.VOB
Формат: MPEG-PS
Размер файла: 1024 Мбайт
Продолжительность: 19 м.
Общий поток: 7323 Кбит/сек
Видео
Идентификатор: 224 (0xE0)
Формат: MPEG Video
Версия формата: Version 2
Профиль формата: Main@Main
Параметр BVOP формата: Да
Параметр матрицы формата: По умолчанию
Продолжительность: 19 м.
Вид битрейта: Переменный
Битрейт: 6282 Кбит/сек
Номинальный битрейт: 8904 Кбит/сек
Ширина: 720 пикс.
Высота: 576 пикс.
Соотношение сторон: 2,35:1
Частота кадров: 25,000 кадр/сек
Стандарт вещания: PAL
Цветовое пространство: YUV
Подвыборка цветности: 4:2:0
Битовая глубина: 8 бит
Тип развёртки: Чересстрочная
Порядок развёртки: Верхнее поле первое
Метод сжатия: С потерями
Бит/(Пиксели*Кадры): 0.606
Размер потока: 878 Мбайт (86%)
Аудио #1
Идентификатор: 128 (0x80)
Формат: AC-3
Формат/Информация: Audio Coding 3
Расширение режима: CM (complete main)
Продолжительность: 19 м.
Вид битрейта: Постоянный
Битрейт: 448 Кбит/сек
Канал(ы): 6 канала(ов)
Расположение каналов: Front: L C R, Side: L R, LFE
Частота: 48,0 КГц
Битовая глубина: 16 бит
Метод сжатия: С потерями
Размер потока: 62,6 Мбайт (6%)
Аудио #2
Идентификатор: 129 (0x81)
Формат: AC-3
Формат/Информация: Audio Coding 3
Расширение режима: CM (complete main)
Продолжительность: 19 м.
Вид битрейта: Постоянный
Битрейт: 448 Кбит/сек
Канал(ы): 6 канала(ов)
Расположение каналов: Front: L C R, Side: L R, LFE
Частота: 48,0 КГц
Битовая глубина: 16 бит
Метод сжатия: С потерями
Размер потока: 62,6 Мбайт (6%)
Текст
Идентификатор: 32 (0x20)
Формат: RLE
Формат/Информация: Run-length encoding
Меню
























Поделиться:



Скачать книги и аудио книги через торрент


Вернуться к началу
 Профиль Отправить личное сообщение  
 
   Похожие торренты   Автор   Торрент   Размер 
В этой теме нет новых непрочитанных сообщений. Бешеная кровь / Sanguepazzo [Драма, история, 2008] DVD9, Mvo

NTL

0 | 0

7.36 ГБ

В этой теме нет новых непрочитанных сообщений. Специальное задание / The Shepherd: Border Patrol [боевик, триллер, криминал, 2008] DVD9, Mvo

salma3

0 | 0

6.6 ГБ

В этой теме нет новых непрочитанных сообщений. Парад / Parada [Драма, комедия, 2011] DVD9, Mvo

NTL

0 | 0

7.06 ГБ

В этой теме нет новых непрочитанных сообщений. Закат американской империи / Le Declin de l'empire americain [драма, комедия, 1986] DVD9, Mvo

salma3

14 | 11

5.79 ГБ

В этой теме нет новых непрочитанных сообщений. Lisa Ann (сцена из "Who's Nailin' Paylin?") [2008 г., All Sex, Big Tits, MILF, HDRip, 720p]

salma3

2 | 1

821.71 МБ

В этой теме нет новых непрочитанных сообщений. Lisa Ann (сцена из "Who's Nailin' Paylin?") [2008 г., All Sex, Big Tits, MILF, HDRip, 720p]

salma3

0 | 0

690.27 МБ

В этой теме нет новых непрочитанных сообщений. Дороти Миллс / Dorothy Mills [Ужас, мистика, 2008] DVD9, Dvo

salma3

0 | 0

7.26 ГБ


Начать новую тему Ответить на тему  [ 1 сообщение ] 




Для Мосгорсуда, Роскомнадзора и рекламодателей:: rstracker[собака]yandex.ru
cron