Торрент файл
скачать торрент магнет ссылка Добавлен: 07 янв 2012, 18:18
Размер: 7.85 ГБ
Сидеров: 2
Личеров: 6
Автор

СообщениеДобавлено: 07 янв 2012, 18:18 

Не в сети
Супермодератор
Аватара пользователя
Дата регистрации:
11 апр 2010, 18:10
Спасибо: 5801 / 7
Сообщения: 56779
Запах женщины / Scent of a Woman

Перевод: Профессиональный (многоголосый, закадровый)+Авторский (А.Гаврилов)
Cубтитры:Русские, английские
Формат: DVD9, DVD Video, MPEG2, AC3
Страна: США
Режиссер: Мартин Брест
Жанр: Драма
Продолжительность: 02:36:15
Год выпуска: 1992

В ролях: Аль Пачино, Крис О’Доннелл, Джеймс Ребхорн, Габриель Анвар, Филип Сеймур, Хоффман Ричард, Венчур Брэдли, Уитфорд Рошелль, Оливер Маргарет, Эджинтон Том, Риис Фаррелл

Описание: Наступил День благодарения, и отставной полковник разведки Фрэнк Слэйд решает справить праздник, «побаловав» себя поездкой в Нью-Йорк. Фрэнк хочет обставить свой последний «коронный выход» по высшему разряду: изысканный отель, шикарный лимузин, дорогая выпивка и женщины потрясающей красоты. Есть лишь две проблемки. Первая: Фрэнк слеп на оба глаза. И вторая: волнующиеся родственники полковника решают нанять за небольшую сумму провожатого в лице нуждающегося студента престижного колледжа по имени Чарли Симмз. Последнее, что было нужно в поездке полковнику Слэйду — так это «зеленый» юнец Чарли. Но случилось так, что путешествие этих двух потрясающе не похожих друг на друга людей изменило их жизни навсегда.

Рейтинг на КиноПоиск:8.487[/field]
Рейтинг MPAA:R[/field]
Рейтинг на IMDB:7.8/10[/field][/field]

Видео: 720x480, ( NTSC 16:9), MPEG2 Video, 23,976 кадр/сек, ~ 8350 Кбит/сек,0.645 Бит/(Пиксели*Кадры)
Аудио #1:Русский, 48,0 КГц, AC3,6 канала(ов), ~448 Кбит/сек [Перевод: Профессиональный (многоголосыйй, закадровый)]
Аудио #2:Русский, 48,0 КГц, AC3, 2 канала(ов), ~448 Кбит/сек [Авторский (А.Гаврилов)]
Аудио #3:Английский, 48,0 КГц, AC3, 6 канала(ов), ~448 Кбит/сек [Оригинал][/field]

Полное имя: D:\Запах женщины DVD9\VIDEO_TS\VTS_01_1.VOB
Формат: MPEG-PS
Размер файла: 1024 Мбайт
Продолжительность: 20 м.
Общий поток: 6826 Кбит/сек
Видео
Идентификатор: 224 (0xE0)
Формат: MPEG Video
Версия формата: Version 2
Профиль формата: Main@Main
Параметр BVOP формата: Да
Параметр матрицы формата: По умолчанию
Продолжительность: 20 м.
Вид битрейта: Переменный
Битрейт: 5346 Кбит/сек
Номинальный битрейт: 8350 Кбит/сек
Ширина: 720 пикс.
Высота: 480 пикс.
Соотношение сторон: 16:9
Частота кадров: 23,976 кадр/сек
Стандарт вещания: NTSC
Цветовое пространство: YUV
Подвыборка цветности: 4:2:0
Битовая глубина: 8 бит
Тип развёртки: Прогрессивная
Порядок развёртки: 2:3 Pulldown
Метод сжатия: С потерями
Бит/(Пиксели*Кадры): 0.645
Размер потока: 802 Мбайт (78%)
Аудио #1
Идентификатор: 128 (0x80)
Формат: AC-3
Формат/Информация: Audio Coding 3
Расширение режима: CM (complete main)
Продолжительность: 20 м.
Вид битрейта: Постоянный
Битрейт: 448 Кбит/сек
Канал(ы): 6 канала(ов)
Расположение каналов: Front: L C R, Side: L R, LFE
Частота: 48,0 КГц
Битовая глубина: 16 бит
Метод сжатия: С потерями
Размер потока: 67,2 Мбайт (7%)
Аудио #2
Идентификатор: 129 (0x81)
Формат: AC-3
Формат/Информация: Audio Coding 3
Расширение режима: CM (complete main)
Продолжительность: 20 м.
Вид битрейта: Постоянный
Битрейт: 448 Кбит/сек
Канал(ы): 2 канала(ов)
Расположение каналов: Front: L R
Частота: 48,0 КГц
Битовая глубина: 16 бит
Метод сжатия: С потерями
Размер потока: 67,2 Мбайт (7%)
Аудио #3
Идентификатор: 130 (0x82)
Формат: AC-3
Формат/Информация: Audio Coding 3
Расширение режима: CM (complete main)
Продолжительность: 20 м.
Вид битрейта: Постоянный
Битрейт: 448 Кбит/сек
Канал(ы): 6 канала(ов)
Расположение каналов: Front: L C R, Side: L R, LFE
Частота: 48,0 КГц
Битовая глубина: 16 бит
Метод сжатия: С потерями
Размер потока: 67,2 Мбайт (7%)
Меню






























Британская академия, 1994 год
Номинации (1):
* Лучший адаптированный сценарий
Оскар, 1993 год
Победитель (1):
* Лучшая мужская роль (Аль Пачино)
Номинации (3):
* Лучший фильм
* Лучший режиссер (Мартин Брест)
* Лучший адаптированный сценарий
Золотой глобус, 1993 год
Победитель (3):
* Лучший фильм (драма)
* Лучшая мужская роль (драма) (Аль Пачино)
* Лучший сценарий
Номинации (1):
* Лучшая мужская роль второго плана (Крис О’Доннелл)

Поделиться:




реклама партнёра


Вернуться к началу
 Профиль Отправить личное сообщение  
 
   Похожие торренты   Автор   Торрент   Размер 
В этой теме нет новых непрочитанных сообщений. Аромат Женщины / Scent of a Woman / Yeoineui Hyanggi [01-16 из 16] (Пак Хён Ги) [2011, романтика, драма, мелодрама, HDTVRip]

Nickolas3435

15 | 11

12.61 ГБ

В этой теме нет новых непрочитанных сообщений. Американский самурай / American Samurai [Боевик, 1992] DVDRip, Avo [Гаврилов]

salma3

2 | 3

1.47 ГБ

В этой теме нет новых непрочитанных сообщений. Запах мандарина / L'odeur de la mandarine [Драма, Мелодрама, 2015] BDRip, Avo

salma3

0 | 0

1.47 ГБ

В этой теме нет новых непрочитанных сообщений. Запах мандарина / L'odeur de la mandarine [Мелодрама, драма, 2015] BDRip 1080р, Avo+Sub

salma3

275 | 91

9.93 ГБ

В этой теме нет новых непрочитанных сообщений. Запах ночи / L’Odore della notte [Триллер, криминал, драма, 1998] SATRip, Mvo

salma3

32 | 6

702.95 МБ

В этой теме нет новых непрочитанных сообщений. Запах Мандаринки / L'odeur de la mandarine (Жиль Легран / Gilles Legrand) [2015г., Франция, мелодрама, драма, BDRip] AVO

Alfredovich

23 | 7

1.47 ГБ

В этой теме нет новых непрочитанных сообщений. A Scent Like Wolves - ...And the Story Goes [2013, Progressive Metalcore, MP3]

PriZraK

0 | 1

99.09 МБ


Начать новую тему Ответить на тему  [ 1 сообщение ] 




Для Мосгорсуда, Роскомнадзора и рекламодателей:: mosgorsud-torrent[собачка]yandex.ru